<?xml version="1.0" standalone="no"?>
<!DOCTYPE svg PUBLIC "-//W3C//DTD SVG 1.1//EN" "http://www.w3.org/Graphics/SVG/1.1/DTD/svg11.dtd" >
<svg xmlns="http://www.w3.org/2000/svg" xmlns:xlink="http://www.w3.org/1999/xlink" version="1.1">
<metadata>
Created by FontForge 20170812 at Sat Jan  7 16:33:10 2017
 By www-data
Copyright (c) Abdelrahman Farahat, 2017. All rights reserved.
</metadata>
<defs>
<font id="BlueOcean" horiz-adv-x="787" >
  <font-face 
    font-family="BlueOcean"
    font-weight="500"
    font-stretch="normal"
    units-per-em="1000"
    panose-1="2 10 5 3 2 1 2 2 2 4"
    ascent="800"
    descent="-200"
    bbox="-50 -682 2195 2103"
    underline-thickness="50"
    underline-position="-100"
    unicode-range="U+001D-FEFF"
  />
<missing-glyph horiz-adv-x="500" 
d="M438 0v750h-375v-750h375zM125 688h250v-625h-250v625z" />
    <glyph glyph-name="uniFC62" unicode="&#x650;&#x651;" horiz-adv-x="549" arabic-form="isolated" 
d="M411 1792v-153q0 -92 -61 -101l-11 -1q12 41 12 93v154l-123 -17v-154q0 -85 -53 -98q-52 -1 -52 84v153l-123 -17v-153q0 -54 12 -93q6 -22 16 -39q10 -16 24 -29q20 -18 48 -25q9 -3 20 -5q14 -2 36 -1h10l19 2l45 7l74 10l46 7q184 25 184 240v154zM566 1412l-591 -86
l14 -101l592 86z" />
    <glyph glyph-name="uniFC5F" unicode="&#x64d;&#x651;" horiz-adv-x="570" arabic-form="isolated" 
d="M411 1757v-153q0 -92 -61 -101l-11 -1q12 41 12 93v154l-123 -17v-154q0 -85 -53 -98q-52 -1 -52 84v153l-123 -17v-153q0 -54 12 -93q6 -22 16 -39q10 -16 24 -29q20 -18 48 -25q9 -3 20 -5q14 -2 36 -1h10l19 2l45 7l74 10l46 7q184 25 184 240v154zM566 1377l-591 -86
l14 -101l592 86zM566 1242l-591 -86l14 -101l592 86z" />
    <glyph glyph-name="uniFC60" unicode="&#x64e;&#x651;" horiz-adv-x="544" arabic-form="isolated" 
d="M411 1684v-153q0 -92 -61 -101l-11 -1q12 41 12 93v154l-123 -17v-154q0 -85 -53 -98q-52 -1 -52 84v153l-123 -17v-153q0 -54 12 -93q6 -22 16 -39q10 -16 24 -29q20 -18 48 -25q9 -3 20 -5q14 -2 36 -1h10l19 2l45 7l74 10l46 7q184 25 184 240v154zM566 1853l-591 -86
l14 -101l592 86z" />
    <glyph glyph-name="uniFC61" unicode="&#x64f;&#x651;" horiz-adv-x="536" arabic-form="isolated" 
d="M411 1691v-153q0 -92 -61 -101l-11 -1q12 41 12 93v154l-123 -17v-154q0 -85 -53 -98q-52 -1 -52 84v153l-123 -17v-154q0 -53 12 -92q6 -22 16 -39q10 -16 24 -29q20 -18 48 -26q9 -2 20 -4q14 -2 36 -1h10l19 2l45 7l74 10l46 6q184 26 184 241v154zM372 1871l-2 -1v0
l-57 -15l-16 59q-6 24 6 46q13 22 37 28q25 7 46 -6q22 -12 29 -37q6 -24 -6 -46q-13 -22 -37 -28zM442 2079q-62 36 -130 18q-70 -19 -105 -81q-37 -62 -18 -131l16 -59l-205 -54l29 -108l371 99q70 18 105 80q37 62 18 131t-81 105z" />
    <glyph glyph-name="uniFEF7" unicode="&#xfedf;&#xfe84;" horiz-adv-x="891" arabic-form="isolated" 
d="M615 1006v-570q0 -184 -122 -186v756h-249v-757h-142v-249h391v0q371 2 371 436v570h-249zM581 1240h-208q-2 23 6 44q15 42 56 61t84 4q5 -2 10 -5l52 135l-6 3l-6 3q-99 36 -195 -8q-95 -44 -132 -143q-17 -47 -16 -94h-56v-146h411v146z" />
    <glyph glyph-name="uniFEF6" unicode="&#xfee0;&#xfe82;" horiz-adv-x="1077" arabic-form="final" 
d="M1030 249q-187 0 -187 125v11v11l-1 11l1 14v15v570h-249v-570q0 -184 -121 -186v756h-250v-757h-142v-249h392v0q157 1 248 80q108 -80 309 -80h56v249h-56zM660 1276q-69 -47 -156 -39q-34 3 -78 14q-17 5 -39 12l-39 13q-105 35 -157 39q-87 8 -156 -39v-155
q69 46 156 40q52 -5 157 -40l39 -13q22 -6 39 -11q44 -12 78 -15q87 -7 156 39v155z" />
    <glyph glyph-name="uniFC5E" unicode="&#x64c;&#x651;" horiz-adv-x="544" arabic-form="isolated" 
d="M411 1691v-153q0 -92 -61 -101l-11 -1q12 41 12 93v154l-123 -17v-154q0 -85 -53 -98q-52 -1 -52 84v153l-123 -17v-154q0 -53 12 -92q6 -22 16 -39q10 -16 24 -29q20 -18 48 -26q9 -2 20 -4q14 -2 36 -1h10l19 2l45 7l74 10l46 6q184 26 184 241v154zM386 1865l-2 -1v0
v0l-57 -15v0l-16 59q-6 25 6 46q13 22 37 28q24 7 46 -5q22 -13 29 -38q7 -24 -6 -46q-13 -21 -37 -28zM457 2073q-62 36 -131 18q-70 -19 -106 -81q-35 -62 -17 -131l16 -59l-49 -12q1 6 1 17q0 71 -50 121l-6 5q-48 45 -115 45v-111q25 0 42 -18q18 -17 18 -42
q0 -12 -4 -23q-5 -11 -14 -20q-10 -11 -23 -14l-5 -2l28 -107l1 -1l372 99v0q69 18 105 80q35 62 17 131q-18 70 -80 105z" />
    <glyph glyph-name="uniFEFB" unicode="&#xfedf;&#xfe8e;" horiz-adv-x="814" arabic-form="isolated" 
d="M536 1006v-570q0 -184 -122 -186v756h-249v-757h-142v-249h453v4q309 37 309 432v570h-249z" />
    <glyph glyph-name="uniFEFC" unicode="&#xfee0;&#xfe8e;" horiz-adv-x="1039" arabic-form="final" 
d="M990 251q-187 0 -187 124v12v10l-1 12v14l1 15v570h-249v-570q0 -184 -122 -187v757h-249v-757h-142v-249h391v0q158 1 249 80q108 -80 309 -80h56v249h-56z" />
    <glyph glyph-name="uniFEF8" unicode="&#xfee0;&#xfe84;" horiz-adv-x="1052" arabic-form="final" 
d="M1001 249q-187 0 -187 125v11v11l-1 11v14l1 15v570h-249v-570q0 -184 -122 -186v756h-249v-757h-142v-249h391v0q158 1 249 80q108 -80 309 -80h56v249h-56zM531 1240h-208q-2 22 6 44q15 42 56 61t84 4q5 -2 10 -5l52 135l-6 3l-6 3q-99 36 -195 -8q-95 -44 -132 -143
q-17 -47 -16 -94h-56v-146h411v146z" />
    <glyph glyph-name="uniFEF9" unicode="&#xfedf;&#xfe88;" horiz-adv-x="875" arabic-form="isolated" 
d="M570 1001v-570q0 -184 -122 -186v756h-249v-756h-142v-250h364v0l27 1q371 2 371 435v570h-249zM387 -275q41 18 83 3q5 -2 10 -5l53 136l-7 3l-6 2q-99 36 -194 -8q-96 -44 -132 -143q-18 -47 -16 -94h-56v-145h411v145h-209q-2 23 6 44q16 43 57 62z" />
    <glyph glyph-name="uniFEFA" unicode="&#xfee0;&#xfe88;" horiz-adv-x="1061" arabic-form="final" 
d="M1010 246q-187 0 -187 124v11v11l-1 11v14l1 15v570h-249v-570q0 -184 -122 -186v756h-249v-756h-142v-250h391v1q158 0 249 80q108 -81 309 -81h56v250h-56zM391 -274q41 18 83 3q5 -2 10 -5l53 136l-7 3l-6 2q-99 36 -194 -8q-96 -44 -132 -143q-18 -47 -16 -94h-57
v-145h412v145h-209q-2 23 6 44q16 43 57 62z" />
    <glyph glyph-name="uniFEF5" unicode="&#xfedf;&#xfe82;" horiz-adv-x="926" arabic-form="isolated" 
d="M627 1006v-570q0 -184 -121 -187v757h-249v-757h-142v-249h391v0q370 2 370 436v570h-249zM694 1276q-69 -46 -156 -39q-35 3 -78 15q-18 4 -40 11l-39 13q-104 35 -156 39q-87 8 -156 -39v-155q69 47 156 39q52 -4 156 -39l39 -13q22 -7 40 -11q43 -12 78 -15
q87 -7 156 39v155z" />
    <glyph glyph-name="uni0622" unicode="&#x627;&#x653;" horiz-adv-x="626" 
d="M189 0h250v1006h-250v-1006zM625 1135q-69 -46 -156 -39q-34 3 -78 15q-17 5 -39 12l-39 12q-105 35 -157 39q-87 8 -156 -39v155q69 47 156 40q52 -5 157 -40l39 -13q22 -6 39 -11q44 -12 78 -15q87 -7 156 39v-155z" />
    <glyph glyph-name="uni0623" unicode="&#x627;&#x654;" horiz-adv-x="417" 
d="M81 0h249v1006h-249v-1006zM202 1226q-1 22 6 44q16 42 57 61t83 3q6 -1 11 -4l52 135l-6 3l-7 3q-99 36 -194 -8q-96 -45 -132 -144q-17 -47 -16 -93h-56v-146h411v146h-209z" />
    <glyph glyph-name="uni0624" unicode="&#x648;&#x654;" horiz-adv-x="838" 
d="M294 384q0 56 40 96t96 40t95 -40q41 -40 41 -96l-1 -4h1v-131h-136q-56 0 -96 40t-40 95zM815 384q0 160 -113 273q-113 112 -272 112t-272 -112q-113 -113 -113 -273q0 -159 113 -272q113 -112 272 -112h129q-9 -31 -34 -55q-39 -40 -95 -40t-96 40l-3 4l-182 -171
l4 -5l5 -4q113 -113 272 -113t272 113t113 272v343zM626 1024h-274q-2 29 8 58q21 55 75 80q53 25 109 4q6 -2 13 -6l69 177l-9 4l-8 4q-129 47 -254 -11t-173 -187q-23 -62 -21 -123h-73v-191h538v191z" />
    <glyph glyph-name="uni0625" unicode="&#x627;&#x655;" horiz-adv-x="400" 
d="M81 1h249v1007h-249v-1007zM202 -372q-1 22 6 44q16 42 57 61t83 3q5 -1 11 -4l52 136l-6 3l-7 2q-99 36 -194 -8q-96 -44 -132 -143q-17 -47 -16 -94h-56v-146h411v146h-209z" />
    <glyph glyph-name="uni0626" unicode="&#x64a;&#x654;" horiz-adv-x="1486" 
d="M574 665h-274q-2 29 8 58q21 55 75 80q53 25 109 4q6 -2 13 -6l69 178l-9 3l-8 4q-129 47 -254 -11t-173 -187q-23 -61 -21 -123h-73v-190h538v190zM1421 373h-483q-63 0 -63 62t63 62h483v249h-483q-312 0 -312 -311t312 -311h234v-31q0 -187 -125 -187h-365v0h-93
q-125 0 -125 187v312h-249v-312q0 -436 374 -436h364v0h94q374 0 374 436v280z" />
    <glyph glyph-name="uniFDF2" unicode="&#xfedf;&#xfee0;&#xfeea;" horiz-adv-x="2273" arabic-form="isolated" 
d="M1617 249q22 81 22 187v570h-249v-570q0 -187 -124 -187h-94v-249h94h4h5v0h453v249h-111zM1822 249q124 0 124 187v570h249v-570q0 -436 -373 -436h-94v249h94zM349 583q40 40 96 40q130 0 185 -22q75 -30 75 -113v-136h-260q-56 0 -96 40t-40 96q0 55 40 95zM1079 249
q-124 0 -125 184v440h-249v-78q-117 78 -260 78q-160 0 -272 -113q-113 -113 -113 -272q0 -160 113 -273q102 -102 245 -111v-1h386q94 -103 275 -103h93v249h-93zM1648 1508v-154q0 -93 -62 -102l-11 -1q12 42 12 94v155l-124 -17v-155q0 -85 -53 -99q-52 -1 -52 84v155
l-124 -18v-154q0 -54 12 -93q6 -22 16 -39t24 -29q20 -18 49 -26q9 -3 20 -5q14 -1 36 -1h10l19 2l46 7l74 10l46 7q185 26 185 242v155z" />
    <glyph glyph-name="uniFE91" unicode="&#x628;" horiz-adv-x="641" arabic-form="initial" 
d="M312 -106q-37 -37 -37 -89t37 -88q36 -36 88 -36t88 36t36 88t-36 89q-36 36 -88 36t-88 -36zM324 748v-312q0 -187 -125 -187h-200v-249h200q374 0 374 436v312h-249z" />
    <glyph glyph-name="uniFE97" unicode="&#x62a;" horiz-adv-x="663" arabic-form="initial" 
d="M503 1066q-52 0 -88 -37q-37 -36 -37 -88q0 -51 37 -88q36 -36 88 -36t88 36q36 37 36 88q0 52 -36 88q-36 37 -88 37zM306 855q36 36 36 88t-36 88q-37 36 -89 36q-51 0 -88 -36q-36 -36 -36 -88t36 -88q37 -37 88 -37q52 0 89 37zM325 436q0 -187 -125 -187h-200v-249
h200q374 0 374 436v312h-249v-312z" />
    <glyph glyph-name="uniFE9B" unicode="&#x62b;" horiz-adv-x="657" arabic-form="initial" 
d="M448 1133q37 36 37 88t-37 89q-36 36 -88 36q-51 0 -88 -36q-37 -37 -37 -89t37 -88t88 -36q52 0 88 36zM503 1066q-52 0 -88 -37q-37 -36 -37 -88q0 -51 37 -88q36 -36 88 -36t88 36q36 37 36 88q0 52 -36 88q-36 37 -88 37zM306 855q36 36 36 88t-36 88q-37 36 -89 36
q-51 0 -88 -36q-36 -36 -36 -88t36 -88q37 -37 88 -37q52 0 89 37zM325 436q0 -187 -125 -187h-200v-249h200q374 0 374 436v312h-249v-312z" />
    <glyph glyph-name="uniFE9F" unicode="&#x62c;" horiz-adv-x="1278" arabic-form="initial" 
d="M1135 250q8 41 8 83q0 181 -128 309q-127 128 -308 128t-309 -128q-12 -13 -26 -30l205 -145q54 54 130 54q78 0 132 -55q55 -55 55 -133q0 -45 -20 -83h-874v-250h1220v250h-85zM646 -96q-36 -36 -36 -88t36 -88q37 -37 88 -37q52 0 89 37q36 36 36 88t-36 88
q-37 36 -89 36q-51 0 -88 -36z" />
    <glyph glyph-name="uniFEA3" unicode="&#x62d;" horiz-adv-x="1259" arabic-form="initial" 
d="M1127 249q8 42 8 84q0 181 -128 309q-127 128 -308 128t-309 -128q-12 -13 -26 -30l205 -145q54 53 130 53q78 0 132 -54q55 -55 55 -133q0 -45 -20 -84h-874v-249h1220v249h-85z" />
    <glyph glyph-name="uniFEA7" unicode="&#x62e;" horiz-adv-x="1263" arabic-form="initial" 
d="M1135 249q8 42 8 84q0 181 -128 309q-127 128 -308 128t-309 -128q-12 -13 -26 -30l205 -145q54 53 130 53q78 0 132 -54q55 -55 55 -133q0 -45 -20 -84h-874v-249h1220v249h-85zM749 848q36 36 36 88t-36 88q-37 37 -88 37q-52 0 -89 -37q-36 -36 -36 -88t36 -88
q37 -36 89 -36q51 0 88 36z" />
    <glyph glyph-name="uniFEB3" unicode="&#x633;" horiz-adv-x="1427" arabic-form="initial" 
d="M1152 748v-312q0 -187 -125 -187h-21q22 81 22 187v312h-249v-312q0 -187 -124 -187h-87q23 81 23 187v312h-249v-312q0 -187 -125 -187h-217v-249h1027q374 0 374 436v312h-249z" />
    <glyph glyph-name="uniFEB7" unicode="&#x634;" horiz-adv-x="1439" arabic-form="initial" 
d="M1152 748v-312q0 -187 -125 -187h-21q22 81 22 187v312h-249v-312q0 -187 -124 -187h-87q23 81 23 187v312h-249v-312q0 -187 -125 -187h-217v-249h1027q374 0 374 436v312h-249zM970 1151q36 36 36 88t-36 88q-37 36 -89 36q-51 0 -88 -36q-36 -36 -36 -88t36 -88
q37 -37 88 -37q52 0 89 37zM936 871q37 -37 88 -37q52 0 88 37q37 36 37 87q0 52 -37 89q-36 36 -88 36q-51 0 -88 -36q-37 -37 -37 -89q0 -51 37 -87zM827 873q36 36 36 87q0 52 -36 89q-36 36 -88 36t-89 -36q-36 -37 -36 -89q0 -51 36 -87q37 -37 89 -37t88 37z" />
    <glyph glyph-name="uniFEC3" unicode="&#x637;" horiz-adv-x="1201" arabic-form="initial" 
d="M839 383q62 0 62 -62v-72h-483v4q1 17 18 38q17 23 46 42q74 50 170 50h187zM1150 321q0 311 -311 311h-187q-72 0 -156 -29q-83 -30 -155 -80v483h-249v-757h-92v-249h1150v321z" />
    <glyph glyph-name="uniFEC7" unicode="&#x638;" horiz-adv-x="1197" arabic-form="initial" 
d="M749 784q36 36 36 88t-36 88q-37 37 -88 37q-52 0 -88 -37q-37 -36 -37 -88t37 -88q36 -36 88 -36q51 0 88 36zM839 383q62 0 62 -62v-72h-483v4q1 17 18 38q17 23 46 42q74 50 170 50h187zM1150 321q0 311 -311 311h-187q-72 0 -156 -29q-83 -30 -155 -80v483h-249v-757
h-92v-249h1150v321z" />
    <glyph glyph-name="uniFECB" unicode="&#x639;" horiz-adv-x="1011" arabic-form="initial" 
d="M434 385q0 56 40 95q40 41 96 41t96 -41q40 -39 40 -95l-1 -5h249l1 2v3q0 159 -113 272t-272 113t-272 -113t-113 -272q0 -72 24 -136h-209v-249h568h2h330v0h55v249h-387q-55 1 -94 40q-40 40 -40 96z" />
    <glyph glyph-name="uniFECF" unicode="&#x63a;" horiz-adv-x="996" arabic-form="initial" 
d="M643 858q36 36 36 88t-36 88q-37 36 -89 36t-88 -36t-36 -88t36 -88q36 -37 88 -37t89 37zM434 385q0 56 40 95q40 41 96 41t96 -41q40 -39 40 -95l-1 -5h249l1 2v3q0 159 -113 272t-272 113t-272 -113t-113 -272q0 -72 24 -136h-209v-249h568h2h330v0h55v249h-387
q-55 1 -94 40q-40 40 -40 96z" />
    <glyph glyph-name="uniFED3" unicode="&#x641;" horiz-adv-x="1004" arabic-form="initial" 
d="M565 249q-55 1 -94 40q-40 40 -40 96t40 95q40 41 96 41t96 -41q39 -39 39 -95v0v-5v0v-131h-137zM952 389h-1q-1 157 -112 268q-113 113 -272 113q-160 0 -273 -113q-112 -113 -112 -272q0 -72 24 -136h-206v-249h565h2h330v0h55v389zM655 858q36 36 36 88t-36 88
t-88 36t-88 -36q-37 -36 -37 -88t37 -88q36 -37 88 -37t88 37z" />
    <glyph glyph-name="uniFED7" unicode="&#x642;" horiz-adv-x="999" arabic-form="initial" 
d="M565 249q-55 1 -94 40q-40 40 -40 96t40 95q40 41 96 41t96 -41q39 -39 39 -95v0v-5v0v-131h-137zM952 389h-1q-1 157 -112 268q-113 113 -272 113q-160 0 -273 -113q-112 -113 -112 -272q0 -72 24 -136h-206v-249h565h2h330v0h55v389zM779 858q37 36 37 88t-37 88
q-36 36 -88 36q-51 0 -88 -36q-36 -36 -36 -88t36 -88q37 -37 88 -37q52 0 88 37zM490 858q36 36 36 88t-36 88t-88 36t-88 -36q-37 -36 -37 -88t37 -88q36 -37 88 -37t88 37z" />
    <glyph glyph-name="uniFEDB" unicode="&#x643;" horiz-adv-x="1282" arabic-form="initial" 
d="M537 623l146 146l-176 176l-322 -322v-249h720q62 0 62 -62q0 -63 -62 -63h-905v-249h905q311 0 311 312q0 311 -311 311h-368z" />
    <glyph glyph-name="uniFEDF" unicode="&#x644;" horiz-adv-x="542" arabic-form="initial" 
d="M94 249q124 0 124 187v570h249v-570q0 -436 -373 -436h-94v249h94z" />
    <glyph glyph-name="uniFEE3" unicode="&#x645;" horiz-adv-x="1069" arabic-form="initial" 
d="M628 249q-56 0 -96 40t-40 96t40 95q40 40 96 40t96 -40q39 -40 39 -95q0 -56 -39 -96q-40 -40 -96 -40zM628 770q-160 0 -273 -113q-82 -82 -104 -190q-8 -39 -8 -82v-11q0 -125 -187 -125h-56v-249h56q215 0 323 90q106 -90 249 -90q159 0 272 113q112 113 112 272
t-112 272q-113 113 -272 113z" />
    <glyph glyph-name="uniFEE7" unicode="&#x646;" horiz-adv-x="623" arabic-form="initial" 
d="M489 868q36 37 36 89q0 51 -36 87q-36 37 -88 37t-88 -37q-37 -36 -37 -87q0 -52 37 -89q36 -36 88 -36t88 36zM325 748v-312q0 -187 -125 -187h-200v-249h200q374 0 374 436v312h-249z" />
    <glyph glyph-name="uniFEEB" unicode="&#x647;" horiz-adv-x="1392" arabic-form="initial" 
d="M987 249q20 59 20 124q0 154 -109 263l-11 10q15 15 34 23q21 9 48 9q88 0 114 -95l1 -6l2 -7q7 -34 7 -79v-242h-106zM503 373q0 54 39 92q14 14 27 22q30 16 65 16q54 0 93 -38t39 -92q0 -27 -10 -50q-9 -23 -29 -43q-21 -21 -47 -31h-91q-26 10 -47 31q-39 38 -39 93z
M969 927q-225 0 -314 -157q-7 -12 -13 -25h-4h-4h-7q-149 -3 -256 -109q-109 -109 -109 -263q0 -65 20 -124h-282v-249h1342v491q0 48 -5 92q-37 344 -368 344z" />
    <glyph glyph-name="uniFEF3" unicode="&#x64a;" horiz-adv-x="655" arabic-form="initial" 
d="M498 -88q-52 0 -88 -37q-37 -36 -37 -88t37 -88q36 -36 88 -36t88 36t36 88t-36 88q-36 37 -88 37zM124 -123q-36 -36 -36 -88t36 -88q37 -36 88 -36q52 0 89 36q36 36 36 88t-36 88q-37 37 -89 37q-51 0 -88 -37zM195 0q374 0 374 436v312h-249v-312q0 -186 -125 -186
h-200v-250h200z" />
    <glyph glyph-name="uniFE8C" unicode="&#x626;" arabic-form="medial" 
d="M698 249q-124 0 -124 185v0v2v312h-249v-312q0 -187 -125 -187h-200v-249h200q157 0 249 78q91 -78 249 -78h94v249h-94zM628 1024h-273q-2 29 9 58q20 55 74 80q53 25 108 5l14 -6l68 177l-8 3l-8 4q-130 47 -255 -11t-172 -187q-22 -62 -21 -123h-73v-190h537v190z" />
    <glyph glyph-name="uniFE92" unicode="&#x628;" arabic-form="medial" 
d="M360 -106q-37 -37 -37 -89t37 -88q36 -36 88 -36t88 36t36 88t-36 89q-36 36 -88 36t-88 -36zM698 249q-124 0 -124 185v0v2v312h-249v-312q0 -187 -125 -187h-200v-249h200q157 0 249 78q91 -78 249 -78h94v249h-94z" />
    <glyph glyph-name="uniFE98" unicode="&#x62a;" horiz-adv-x="789" arabic-form="medial" 
d="M415 853q36 -36 88 -36t88 36q36 37 36 88q0 52 -36 88q-36 37 -88 37t-88 -37q-37 -36 -37 -88q0 -51 37 -88zM306 855q36 36 36 88t-36 88q-37 36 -89 36q-51 0 -88 -36q-36 -36 -36 -88t36 -88q37 -37 88 -37q52 0 89 37zM698 249q-124 0 -124 185v0v2v312h-249v-312
q0 -187 -125 -187h-200v-249h200q157 0 249 78q91 -78 249 -78h94v249h-94z" />
    <glyph glyph-name="uniFE9C" unicode="&#x62b;" horiz-adv-x="788" arabic-form="medial" 
d="M448 1133q37 36 37 88t-37 89q-36 36 -88 36q-51 0 -88 -36q-37 -37 -37 -89t37 -88t88 -36q52 0 88 36zM415 853q36 -36 88 -36t88 36q36 37 36 88q0 52 -36 88q-36 37 -88 37t-88 -37q-37 -36 -37 -88q0 -51 37 -88zM306 855q36 36 36 88t-36 88q-37 36 -89 36
q-51 0 -88 -36q-36 -36 -36 -88t36 -88q37 -37 88 -37q52 0 89 37zM698 249q-124 0 -124 185v0v2v312h-249v-312q0 -187 -125 -187h-200v-249h200q157 0 249 78q91 -78 249 -78h94v249h-94z" />
    <glyph glyph-name="uniFEA0" unicode="&#x62c;" horiz-adv-x="1348" arabic-form="medial" 
d="M1135 250q8 41 8 83q0 181 -128 309q-127 128 -308 128t-309 -128q-12 -13 -26 -30l205 -145q54 54 130 54q78 0 132 -55q55 -55 55 -133q0 -45 -20 -83h-874v-250h1351v250h-216zM686 -96q-36 -36 -36 -88t36 -88q37 -37 88 -37q52 0 88 37q37 36 37 88t-37 88
q-36 36 -88 36q-51 0 -88 -36z" />
    <glyph glyph-name="uniFEA4" unicode="&#x62d;" horiz-adv-x="1348" arabic-form="medial" 
d="M1135 249q8 42 8 84q0 181 -128 309q-127 128 -308 128t-309 -128q-12 -13 -26 -30l205 -145q54 53 130 53q78 0 132 -54q55 -55 55 -133q0 -45 -20 -84h-874v-249h1351v249h-216z" />
    <glyph glyph-name="uniFEA8" unicode="&#x62e;" horiz-adv-x="1345" arabic-form="medial" 
d="M1135 249q8 42 8 84q0 181 -128 309q-127 128 -308 128t-309 -128q-12 -13 -26 -30l205 -145q54 53 130 53q78 0 132 -54q55 -55 55 -133q0 -45 -20 -84h-874v-249h1351v249h-216zM789 848q36 36 36 88t-36 88q-37 37 -88 37q-52 0 -89 -37q-36 -36 -36 -88t36 -88
q37 -36 89 -36q51 0 88 36z" />
    <glyph glyph-name="uniFEB4" unicode="&#x633;" horiz-adv-x="1594" arabic-form="medial" 
d="M1378 249q23 81 23 187v312h-249v-312q0 -187 -125 -187h-21q22 81 22 187v312h-249v-312q0 -187 -124 -187h-87q23 81 23 187v312h-249v-312q0 -187 -125 -187h-217v-249h1598v249h-220z" />
    <glyph glyph-name="uniFEB8" unicode="&#x634;" horiz-adv-x="1589" arabic-form="medial" 
d="M1378 249q23 81 23 187v312h-249v-312q0 -187 -125 -187h-21q22 81 22 187v312h-249v-312q0 -187 -124 -187h-87q23 81 23 187v312h-249v-312q0 -187 -125 -187h-217v-249h1598v249h-220zM988 1151q36 36 36 88t-36 88t-88 36t-88 -36q-37 -36 -37 -88t37 -88
q36 -37 88 -37t88 37zM955 871q36 -37 87 -37q52 0 89 37q36 36 36 87q0 52 -36 89q-37 36 -89 36q-51 0 -87 -36q-37 -37 -37 -89q0 -51 37 -87zM845 873q37 36 37 87q0 52 -37 89q-36 36 -88 36q-51 0 -88 -36q-37 -37 -37 -89q0 -51 37 -87q37 -37 88 -37q52 0 88 37z
" />
    <glyph glyph-name="uniFEBC" unicode="&#x635;" horiz-adv-x="1389" arabic-form="medial" 
d="M893 383q62 0 62 -62v-72h-482v4q0 17 16 38q18 23 48 42q73 50 170 50h186zM1205 249v72q-1 311 -312 311h-186q-73 0 -157 -29q-83 -30 -155 -80v89h-249v-363h-146v-249h1390v249h-185z" />
    <glyph glyph-name="uniFEC0" unicode="&#x636;" horiz-adv-x="1387" arabic-form="medial" 
d="M783 784q37 36 37 88t-37 88q-36 37 -88 37q-51 0 -88 -37q-36 -36 -36 -88t36 -88q37 -36 88 -36q52 0 88 36zM893 383q62 0 62 -62v-72h-482v4q0 17 16 38q18 23 48 42q73 50 170 50h186zM1205 249v72q-1 311 -312 311h-186q-73 0 -157 -29q-83 -30 -155 -80v89h-249
v-363h-146v-249h1390v249h-185z" />
    <glyph glyph-name="uniFEC4" unicode="&#x637;" horiz-adv-x="1474" arabic-form="medial" 
d="M961 383q62 0 63 -62v-72h-483v3q0 17 17 39t46 42q74 50 171 50h186zM1273 249v72q-1 311 -312 311h-186q-73 0 -156 -29q-83 -30 -155 -80v483h-250v-757h-214v-249h1480v249h-207z" />
    <glyph glyph-name="uniFEC8" unicode="&#x638;" horiz-adv-x="1474" arabic-form="medial" 
d="M906 784q36 36 36 88t-36 88q-36 37 -88 37q-51 0 -88 -37q-37 -36 -37 -88t37 -88t88 -36q52 0 88 36zM961 383q62 0 63 -62v-72h-483v3q0 17 17 39t46 42q74 50 171 50h186zM1273 249v72q-1 311 -312 311h-186q-73 0 -156 -29q-83 -30 -155 -80v483h-250v-757h-214
v-249h1480v249h-207z" />
    <glyph glyph-name="uniFECC" unicode="&#x639;" horiz-adv-x="1029" arabic-form="medial" 
d="M426 498q187 0 187 -124q0 -70 -59 -101l-175 225h47zM847 249q15 57 15 125q0 374 -436 374h-298v-250h1l195 -249h-324v-249h176v0h250h3h605v249h-187z" />
    <glyph glyph-name="uniFED0" unicode="&#x63a;" horiz-adv-x="1029" arabic-form="medial" 
d="M517 858q37 36 37 88t-37 88q-36 36 -88 36t-88 -36t-36 -88t36 -88q36 -37 88 -37t88 37zM426 498q187 0 187 -124q0 -70 -59 -101l-175 225h47zM847 249q15 57 15 125q0 374 -436 374h-298v-250h1l195 -249h-324v-249h176v0h250h3h605v249h-187z" />
    <glyph glyph-name="uniFED4" unicode="&#x641;" horiz-adv-x="1150" arabic-form="medial" 
d="M661 858q36 36 36 88t-36 88t-88 36t-88 -36q-37 -36 -37 -88t37 -88q36 -37 88 -37t88 37zM438 385q0 56 39 95q40 41 96 41t95 -41q40 -39 40 -95v0v-5v0v-131h-137q-55 1 -94 40q-39 40 -39 96zM1151 249h-193v140v0q-2 157 -113 268q-113 113 -272 113t-272 -113
t-113 -272q0 -72 24 -136h-212v-249h571h2h330v0h248v249z" />
    <glyph glyph-name="uniFED8" unicode="&#x642;" horiz-adv-x="1148" arabic-form="medial" 
d="M786 858q36 36 36 88t-36 88q-37 36 -89 36q-51 0 -88 -36q-36 -36 -36 -88t36 -88q37 -37 88 -37q52 0 89 37zM496 858q37 36 37 88t-37 88q-36 36 -88 36t-88 -36t-36 -88t36 -88q36 -37 88 -37t88 37zM438 385q0 56 39 95q40 41 96 41t95 -41q40 -39 40 -95v0v-5v0
v-131h-137q-55 1 -94 40q-39 40 -39 96zM1151 249h-193v140v0q-2 157 -113 268q-113 113 -272 113t-272 -113t-113 -272q0 -72 24 -136h-212v-249h571h2h330v0h248v249z" />
    <glyph glyph-name="uniFEDC" unicode="&#x643;" horiz-adv-x="1402" arabic-form="medial" 
d="M1408 249h-195q3 32 3 63q0 311 -311 311h-368l146 146l-176 176l-322 -322v-249h720q62 0 62 -62q0 -63 -62 -63h-905v-249h1408v249z" />
    <glyph glyph-name="uniFEE0" unicode="&#x644;" horiz-adv-x="550" arabic-form="medial" 
d="M445 249q22 81 22 187v570h-249v-570q0 -187 -124 -187h-94v-249h94h4h5v0h453v249h-111z" />
    <glyph glyph-name="uniFEE4" unicode="&#x645;" horiz-adv-x="1246" arabic-form="medial" 
d="M532 289q-40 40 -40 96t40 95q40 40 96 40t96 -40q39 -40 39 -95q0 -56 -39 -96q-40 -40 -96 -40t-96 40zM1199 249q-187 0 -187 125v11q0 20 -2 41v5l-1 6q-2 17 -5 28v2v0q-23 108 -104 190q-113 113 -272 113q-160 0 -273 -113q-82 -82 -104 -190q-8 -39 -8 -82v-11
q0 -125 -187 -125h-56v-249h56q215 0 323 90q106 -90 249 -90q142 0 248 91v-1q109 -90 323 -90h56v249h-56z" />
    <glyph glyph-name="uniFEE8" unicode="&#x646;" horiz-adv-x="788" arabic-form="medial" 
d="M536 868q36 37 36 89q0 51 -36 87q-36 37 -88 37t-88 -37q-37 -36 -37 -87q0 -52 37 -89q36 -36 88 -36t88 36zM698 249q-124 0 -124 185v0v2v312h-249v-312q0 -187 -125 -187h-200v-249h200q157 0 249 78q91 -78 249 -78h94v249h-94z" />
    <glyph glyph-name="uniFEEC" unicode="&#x647;" horiz-adv-x="1136" arabic-form="medial" 
d="M695 -131q0 -27 -9 -49q-9 -24 -29 -44q-39 -38 -93 -38h-4q-43 0 -63 12q-24 13 -35 53l-1 6l-2 6q-6 30 -6 71v114h119q50 -3 85 -38q38 -39 38 -93zM453 380q0 40 6 71l2 6l1 6q23 83 101 84q58 -1 94 -38q38 -40 38 -112q0 -54 -38 -93q-24 -24 -45 -37
q-28 -18 -52 -18h-107v131zM1138 249h-231q30 68 30 148q0 70 -23 131q-27 73 -86 132q-100 100 -240 108q-12 2 -24 2v0q-296 -1 -329 -307q-4 -40 -4 -83v-131h-235v-249h235v-114q0 -43 4 -83q33 -306 329 -306v0q11 0 23 1q140 7 241 107q59 60 86 132q23 61 23 132
q0 69 -23 131h224v249z" />
    <glyph glyph-name="uniFEF4" unicode="&#x64a;" horiz-adv-x="786" arabic-form="medial" 
d="M412 -125q-37 -36 -37 -88t37 -88q36 -36 87 -36q52 0 89 36q36 36 36 88t-36 88q-37 37 -89 37q-51 0 -87 -37zM126 -123q-37 -36 -37 -88t37 -88q36 -36 88 -36t88 36t36 88t-36 88q-36 37 -88 37t-88 -37zM695 250q-124 0 -125 184v0v2v312h-249v-312
q0 -186 -124 -186h-200v-250h200q157 0 249 79q91 -79 249 -79h94v250h-94z" />
    <glyph glyph-name="uniFE82" unicode="&#x622;" horiz-adv-x="603" arabic-form="final" 
d="M575 1135q-69 -46 -156 -39q-34 3 -78 15q-17 5 -39 12l-39 12q-105 35 -157 39q-87 8 -156 -39v155q69 47 156 40q52 -5 157 -40l39 -13q22 -6 39 -11q44 -12 78 -15q87 -7 156 39v-155zM513 249q-125 0 -125 187v570h-249v-570q0 -436 374 -436h94v249h-94z" />
    <glyph glyph-name="uniFE84" unicode="&#x623;" horiz-adv-x="561" arabic-form="final" 
d="M469 249q-124 0 -124 187v570h-249v-570q0 -436 373 -436h94v249h-94zM411 1226h-209q-1 22 6 44q16 42 57 61t83 3q6 -1 11 -4l52 135l-6 3l-7 3q-99 36 -194 -8q-96 -45 -132 -144q-17 -47 -16 -93h-56v-146h411v146z" />
    <glyph glyph-name="uniFE86" unicode="&#x624;" horiz-adv-x="934" arabic-form="final" 
d="M249 384q0 56 40 96t96 40t95 -40q41 -40 41 -96l-1 -4h1v-131h-136q-56 0 -96 40t-40 95zM939 249h-169v135q0 160 -113 273q-113 112 -272 112t-272 -112q-113 -113 -113 -273q0 -159 113 -272q113 -112 272 -112h129q-9 -31 -34 -55q-39 -40 -95 -40t-96 40l-3 4
l-182 -171l4 -5l5 -4q113 -113 272 -113t272 113q97 98 111 231h171v249zM581 1024h-274q-2 29 8 58q21 55 75 80q53 25 109 4q6 -2 13 -6l69 177l-9 4l-8 4q-129 47 -254 -11t-173 -187q-23 -62 -21 -123h-73v-191h538v191z" />
    <glyph glyph-name="uniFE88" unicode="&#x625;" horiz-adv-x="513" arabic-form="final" 
d="M342 -267q41 19 83 3q5 -1 11 -4l52 136l-6 3l-7 2q-98 36 -194 -8t-132 -143q-17 -47 -16 -94h-56v-146h411v146h-209q-1 22 7 44q15 42 56 61zM423 251q-125 0 -125 187v570h-249v-570q0 -437 374 -437h93v250h-93z" />
    <glyph glyph-name="uniFE8A" unicode="&#x626;" horiz-adv-x="1827" arabic-form="final" 
d="M577 665h-274q-2 29 8 58q21 55 75 80q53 25 109 4q6 -2 13 -6l69 178l-9 3l-8 4q-129 47 -254 -11t-173 -187q-23 -61 -21 -123h-73v-190h538v190zM1755 250v86q0 311 -311 311q-312 0 -312 -311v-243q0 -187 -124 -187h-365v0h-94q-124 0 -124 187v312h-249v-312
q0 -436 373 -436h365v0h94q373 0 373 436v243q0 62 63 62q62 0 62 -62v-335h325v249h-76z" />
    <glyph glyph-name="uniFE8E" unicode="&#x627;" horiz-adv-x="504" arabic-form="final" 
d="M417 249q-125 0 -125 187v570h-249v-570q0 -436 374 -436h93v249h-93z" />
    <glyph glyph-name="uniFE90" unicode="&#x628;" horiz-adv-x="1280" arabic-form="final" 
d="M510 -106q-37 -37 -37 -89t37 -88q36 -36 88 -36t88 36q37 36 37 88t-37 89q-36 36 -88 36t-88 -36zM1190 249q-124 0 -125 185v2v312h-249v-312q0 -187 -124 -187h-241q-187 0 -187 125q0 124 187 124h41v250h-41q-436 0 -436 -374t436 -374h241q157 0 249 78
q91 -78 249 -78h94v249h-94z" />
    <glyph glyph-name="uniFE94" unicode="&#x629;" horiz-adv-x="1129" arabic-form="final" 
d="M307 583q40 40 96 40q130 0 185 -22q75 -30 75 -113v-136h-260q-56 0 -96 40t-40 96q0 55 40 95zM1037 249q-124 0 -125 184v440h-249v-78q-117 78 -260 78q-160 0 -272 -113q-113 -113 -113 -272q0 -160 113 -273q102 -102 245 -111v-1h386q94 -103 275 -103h93v249h-93
zM681 963q36 37 36 88q0 52 -36 88q-37 37 -89 37t-88 -37q-36 -36 -36 -88q0 -51 36 -88q36 -36 88 -36t89 36zM391 963q37 37 37 88q0 52 -37 88q-36 37 -88 37t-88 -37q-36 -36 -36 -88q0 -51 36 -88q36 -36 88 -36t88 36z" />
    <glyph glyph-name="uniFE96" unicode="&#x62a;" horiz-adv-x="1290" arabic-form="final" 
d="M760 853q37 -36 88 -36q52 0 89 36q36 37 36 88q0 52 -36 88q-37 37 -89 37q-51 0 -88 -37q-36 -36 -36 -88q0 -51 36 -88zM651 855q36 36 36 88t-36 88q-37 36 -88 36q-52 0 -88 -36q-37 -36 -37 -88t37 -88q36 -37 88 -37q51 0 88 37zM1204 249q-124 0 -125 185v2v312
h-249v-312q0 -187 -124 -187h-241q-187 0 -187 125q0 124 187 124h41v250h-41q-436 0 -436 -374t436 -374h241q157 0 249 78q91 -78 249 -78h94v249h-94z" />
    <glyph glyph-name="uniFE9A" unicode="&#x62b;" horiz-adv-x="1307" arabic-form="final" 
d="M809 1133q36 36 36 88t-36 89q-36 36 -88 36t-89 -36q-36 -37 -36 -89t36 -88q37 -36 89 -36t88 36zM775 853q37 -36 88 -36q52 0 89 36q36 37 36 88q0 52 -36 88q-37 37 -89 37q-51 0 -88 -37q-36 -36 -36 -88q0 -51 36 -88zM666 855q36 36 36 88t-36 88q-37 36 -88 36
q-52 0 -88 -36q-37 -36 -37 -88t37 -88q36 -37 88 -37q51 0 88 37zM1219 249q-124 0 -125 185v2v312h-249v-312q0 -187 -124 -187h-241q-187 0 -187 125q0 124 187 124h41v250h-41q-436 0 -436 -374t436 -374h241q157 0 249 78q91 -78 249 -78h94v249h-94z" />
    <glyph glyph-name="uniFE9E" unicode="&#x62c;" horiz-adv-x="997" arabic-form="final" 
d="M329 -185q0 -51 36 -87q36 -37 88 -37t88 37q37 36 37 87q0 52 -37 89q-36 36 -88 36t-88 -36q-36 -37 -36 -89zM789 249q8 41 8 84q0 181 -128 309q-128 127 -308 127q-181 0 -308 -127q-14 -14 -28 -30l206 -145q54 53 130 53q77 0 132 -55t55 -132q0 -45 -20 -84h-75
q-120 0 -215 -56q-50 -28 -94 -72q-49 -49 -80 -108l-6 -13q-41 -85 -41 -187q0 -181 127 -309q128 -127 309 -127t308 127q24 24 43 49l-204 144q-6 -8 -15 -16q-55 -55 -132 -55t-132 55q-55 54 -55 132q0 77 55 132t132 55h547v249h-211z" />
    <glyph glyph-name="uniFEA2" unicode="&#x62d;" horiz-adv-x="1023" arabic-form="final" 
d="M813 249q8 41 8 84q0 181 -128 309q-128 127 -308 127q-181 0 -308 -127q-14 -14 -28 -30l206 -145q54 53 130 53q77 0 132 -55t55 -132q0 -45 -20 -84h-75q-120 0 -215 -56q-50 -28 -94 -72q-49 -49 -80 -108l-6 -13q-41 -85 -41 -187q0 -181 127 -309
q128 -127 309 -127t308 127q24 24 43 49l-204 144q-6 -8 -15 -16q-55 -55 -132 -55t-132 55q-55 54 -55 132q0 77 55 132t132 55h547v249h-211z" />
    <glyph glyph-name="uniFEA6" unicode="&#x62e;" horiz-adv-x="1029" arabic-form="final" 
d="M498 848q37 36 37 88t-37 88q-36 37 -88 37q-51 0 -88 -37q-36 -36 -36 -88t36 -88q37 -36 88 -36q52 0 88 36zM820 249q8 41 8 84q0 181 -128 309q-128 127 -308 127q-181 0 -308 -127q-14 -14 -28 -30l206 -145q54 53 130 53q77 0 132 -55t55 -132q0 -45 -20 -84h-75
q-120 0 -215 -56q-50 -28 -94 -72q-49 -49 -80 -108l-6 -13q-41 -85 -41 -187q0 -181 127 -309q128 -127 309 -127t308 127q24 24 43 49l-204 144q-6 -8 -15 -16q-55 -55 -132 -55t-132 55q-55 54 -55 132q0 77 55 132t132 55h547v249h-211z" />
    <glyph glyph-name="uniFEAA" unicode="&#x62f;" horiz-adv-x="797" arabic-form="final" 
d="M615 249q15 57 15 125q0 374 -436 374h-41v-250h41q187 0 187 -124q0 -125 -187 -125h-147v-249h754v249h-186z" />
    <glyph glyph-name="uniFEAC" unicode="&#x630;" horiz-adv-x="799" arabic-form="final" 
d="M354 848q37 36 37 88t-37 88q-36 37 -88 37q-51 0 -88 -37q-36 -36 -36 -88t36 -88q37 -36 88 -36q52 0 88 36zM620 249q15 57 15 125q0 374 -436 374h-41v-250h41q187 0 187 -124q0 -125 -187 -125h-147v-249h754v249h-186z" />
    <glyph glyph-name="uniFEAE" unicode="&#x631;" horiz-adv-x="882" arabic-form="final" 
d="M889 249h-224v498h-249v-706q0 -56 -39 -96q-40 -40 -96 -40t-96 40l-3 4l-182 -171l4 -4l5 -5q112 -113 272 -113q159 0 272 113q98 98 110 231h226v249z" />
    <glyph glyph-name="uniFEB0" unicode="&#x632;" horiz-adv-x="879" arabic-form="final" 
d="M629 848q36 36 36 88t-36 88q-36 37 -88 37t-88 -37q-37 -36 -37 -88t37 -88q36 -37 88 -37t88 37zM889 249h-224v498h-249v-706q0 -56 -39 -96q-40 -40 -96 -40t-96 40l-3 4l-182 -171l4 -4l5 -5q112 -113 272 -113q159 0 272 113q98 98 110 231h226v249z" />
    <glyph glyph-name="uniFEB2" unicode="&#x633;" horiz-adv-x="1823" arabic-form="final" 
d="M1588 249q23 81 23 187v311h-250v-311q0 -187 -124 -187h-21q22 81 22 187v311h-249v-311q0 -187 -124 -187h-64v498h-250v-655q0 -21 -1 -41q-2 -21 -6 -38l-3 -13q-25 -95 -114 -95q-125 0 -125 187v436h-249v-436q0 -436 374 -436q332 0 369 344h347v0h686v249h-241z
" />
    <glyph glyph-name="uniFEB6" unicode="&#x634;" horiz-adv-x="1826" arabic-form="final" 
d="M1588 249q23 81 23 187v311h-250v-311q0 -187 -124 -187h-21q22 81 22 187v311h-249v-311q0 -187 -124 -187h-64v498h-250v-655q0 -21 -1 -41q-2 -21 -6 -38l-3 -13q-25 -95 -114 -95q-125 0 -125 187v436h-249v-436q0 -436 374 -436q332 0 369 344h347v0h686v249h-241z
M1198 1150q36 37 36 89t-36 88q-37 36 -89 36q-51 0 -88 -36q-36 -36 -36 -88t36 -89q37 -36 88 -36q52 0 89 36zM1164 871q37 -37 88 -37q52 0 88 37q37 36 37 87q0 52 -37 89q-36 36 -88 36q-51 0 -88 -36q-36 -37 -36 -89q0 -51 36 -87zM1055 872q36 37 36 88
q0 52 -36 88q-36 37 -88 37t-89 -37q-36 -36 -36 -88q0 -51 36 -88q37 -36 89 -36t88 36z" />
    <glyph glyph-name="uniFEBA" unicode="&#x635;" horiz-adv-x="1783" arabic-form="final" 
d="M1304 383q62 0 62 -62v-72h-483v4q0 17 17 38q17 23 47 42q73 50 170 50h187zM1784 249h-169v72q0 311 -311 311h-187q-73 0 -156 -29q-84 -30 -155 -80v89h-249v-84h-1v-436q0 -45 -7 -79l-1 -7l-2 -6q-26 -95 -114 -95q-125 0 -125 187v436h-249v-436q0 -436 374 -436
q332 0 369 344h983v249z" />
    <glyph glyph-name="uniFEBE" unicode="&#x636;" horiz-adv-x="1780" arabic-form="final" 
d="M1210 784q37 36 37 88q0 51 -37 88q-36 37 -88 37q-51 0 -88 -37q-36 -37 -36 -88q0 -52 36 -88q37 -37 88 -37q52 0 88 37zM1301 383q62 0 62 -62v-72h-483v4q0 17 17 38q17 23 47 42q73 50 170 50h187zM1781 249h-169v72q0 311 -311 311h-187q-73 0 -156 -29
q-84 -30 -155 -80v89h-249v-84h-1v-436q0 -45 -7 -79l-1 -7l-2 -6q-26 -95 -114 -95q-125 0 -125 187v436h-249v-436q0 -436 374 -436q332 0 369 344h983v249z" />
    <glyph glyph-name="uniFEC2" unicode="&#x637;" horiz-adv-x="1382" arabic-form="final" 
d="M885 383q62 0 62 -62v-72h-482v3q0 17 16 39q18 22 47 42q74 50 171 50h186zM1196 249v72v0q0 311 -311 311h-186q-73 0 -156 -29q-84 -30 -156 -80v483h-249v-757h-88v-249h1334v249h-188z" />
    <glyph glyph-name="uniFEC6" unicode="&#x638;" horiz-adv-x="1375" arabic-form="final" 
d="M869 779q37 36 37 88q0 51 -37 88q-36 36 -88 36q-51 0 -88 -36q-37 -37 -37 -88q0 -52 37 -88q37 -37 88 -37q52 0 88 37zM881 383q62 0 62 -62v-72h-482v3q0 17 16 39q18 22 47 42q74 50 171 50h186zM1192 249v72v0q0 311 -311 311h-186q-73 0 -156 -29
q-84 -30 -156 -80v483h-249v-757h-88v-249h1334v249h-188z" />
    <glyph glyph-name="uniFECA" unicode="&#x639;" horiz-adv-x="1152" arabic-form="final" 
d="M549 499q187 0 187 -125q0 -70 -58 -101l-176 226h47zM1158 0v250h-187q14 56 14 124q0 374 -436 374h-297v-249h1l194 -249h-29q-374 0 -374 -437q0 -436 374 -436h617v249h-617q-125 0 -125 187t125 187h40v0h91h5h5h12v0h587z" />
    <glyph glyph-name="uniFECE" unicode="&#x63a;" horiz-adv-x="1151" arabic-form="final" 
d="M639 858q36 36 36 88t-36 88t-88 36t-88 -36q-37 -36 -37 -88t37 -88q36 -37 88 -37t88 37zM547 499q187 0 187 -125q0 -70 -58 -101l-176 226h47zM1156 0v250h-187q14 56 14 124q0 374 -436 374h-297v-249h1l194 -249h-29q-374 0 -374 -437q0 -436 374 -436h617v249
h-617q-125 0 -125 187t125 187h40v0h91h5h5h12v0h587z" />
    <glyph glyph-name="uniFED2" unicode="&#x641;" horiz-adv-x="1740" arabic-form="final" 
d="M1254 858q36 36 36 88t-36 88t-88 36t-88 -36q-37 -36 -37 -88t37 -88q36 -37 88 -37t88 37zM1030 385q0 56 40 95q40 41 96 41t95 -41q40 -39 40 -95v0v-5v0v-131h-137q-55 1 -94 40q-40 40 -40 96zM1744 249h-193v140v0q-2 157 -113 268q-113 113 -272 113t-272 -113
t-113 -272q0 -72 24 -136h-212v0h-106q-187 0 -187 125q0 124 187 124h41v250h-41q-436 0 -436 -374t436 -374h147v0h530h2h330v0h248v249z" />
    <glyph glyph-name="uniFED6" unicode="&#x642;" horiz-adv-x="1327" arabic-form="final" 
d="M999 858q36 36 36 88t-36 88t-88 36t-88 -36q-37 -36 -37 -88t37 -88q36 -37 88 -37t88 37zM710 858q36 36 36 88t-36 88t-88 36t-89 -36q-36 -36 -36 -88t36 -88q37 -37 89 -37t88 37zM652 385q0 56 40 95q39 40 95 40t96 -40q40 -39 40 -95v-5v0v-131h-136
q-56 0 -95 40q-40 40 -40 96zM1328 249h-156v140v0q-1 157 -113 268q-112 113 -272 113q-159 0 -272 -113q-112 -113 -112 -272q0 -160 112 -272q113 -113 272 -113h136q0 -187 -187 -187h-249q-187 0 -187 187v4q0 51 33 88l-180 173q-102 -110 -102 -261v-4v0
q0 -436 436 -436h249q436 0 436 436h156v249z" />
    <glyph glyph-name="uniFEDA" unicode="&#x643;" horiz-adv-x="1315" arabic-form="final" 
d="M1192 249q23 81 23 187v570h-250v-570q0 -186 -124 -186h-94v-1h-323q-125 0 -125 187h-249q0 -436 374 -436h93v0h802v249h-127zM836 510h-207q-1 23 6 44q16 42 57 61q40 18 82 3l10 -4l52 134l-6 2l-7 3q-97 36 -192 -8q-95 -43 -131 -141q-17 -47 -16 -94h-55v-144
h407v144z" />
    <glyph glyph-name="uniFEDE" unicode="&#x644;" horiz-adv-x="947" arabic-form="final" 
d="M952 249h-151v757h-250v-914q0 -45 -7 -79l-1 -7l-2 -6q-26 -95 -114 -95q-125 0 -125 187v157h-249v-157q0 -436 374 -436q332 0 369 344h156v249z" />
    <glyph glyph-name="uniFEE2" unicode="&#x645;" horiz-adv-x="1425" arabic-form="final" 
d="M707 289q-40 40 -40 95q0 56 40 96t96 40t96 -40t40 -96q0 -55 -40 -95t-96 -40t-96 40zM1375 249q-187 0 -187 125v10q0 21 -2 41l-1 5l-1 5q-2 18 -4 30v2v0q-23 108 -105 190q-113 112 -272 112t-272 -112q-70 -71 -97 -159h-14q-373 0 -373 -436v-406h249v406
q0 187 124 187h22q29 -76 89 -137q113 -112 272 -112q143 0 248 90v0q109 -90 324 -90h56v249h-56z" />
    <glyph glyph-name="uniFEE6" unicode="&#x646;" horiz-adv-x="1233" arabic-form="final" 
d="M1146 249q-124 0 -124 185v0v314h-250v-517q0 -187 -124 -187h-131v0h-94q-124 0 -124 187v81q0 125 187 125h40v249h-40q-436 0 -436 -374v-81q0 -436 373 -436h131v0h94q270 0 345 229q67 -24 153 -24h94v249h-94zM661 868q36 37 36 89q0 51 -36 87q-37 37 -88 37
q-52 0 -88 -37q-37 -36 -37 -87q0 -52 37 -89q36 -36 88 -36q51 0 88 36z" />
    <glyph glyph-name="uniFEEA" unicode="&#x647;" horiz-adv-x="1162" arabic-form="final" 
d="M341 583q40 40 96 40q130 0 185 -22q75 -30 75 -113v-136h-260q-56 0 -96 40t-40 96q0 55 40 95zM1071 249q-124 0 -125 184v440h-249v-78q-117 78 -260 78q-160 0 -272 -113q-113 -113 -113 -272q0 -160 113 -273q102 -102 245 -111v-1h386q94 -103 275 -103h93v249h-93
z" />
    <glyph glyph-name="uniFEEE" unicode="&#x648;" horiz-adv-x="980" arabic-form="final" 
d="M294 384q0 56 40 96q39 40 95 40t96 -40t40 -96v-4v0v-131h-136q-56 0 -95 40q-40 40 -40 95zM984 249h-170v135q0 160 -113 273q-112 112 -272 112q-159 0 -272 -112q-112 -113 -112 -273q0 -159 112 -272q113 -112 272 -112h130q-10 -31 -34 -55q-40 -40 -96 -40
t-95 40l-4 4l-181 -171l4 -5l4 -4q113 -113 272 -113q160 0 272 113q98 98 111 231h172v249z" />
    <glyph glyph-name="uniFEF0" unicode="&#x649;" horiz-adv-x="1703" arabic-form="final" 
d="M1632 249v86q0 311 -311 311t-311 -311v-243q0 -187 -125 -187h-364v0h-94q-125 0 -125 187v312h-249v-312q0 -436 374 -436h365v0h93q374 0 374 436v159v0v84q0 62 62 62t62 -62v-335h326v249h-77z" />
    <glyph glyph-name="uniFEF2" unicode="&#x64a;" horiz-adv-x="1709" arabic-form="final" 
d="M775 -430q-37 -36 -37 -88t37 -88q36 -37 88 -37t88 37q36 36 36 88t-36 88t-88 36t-88 -36zM489 -428q-36 -36 -36 -88t36 -88q37 -37 88 -37q52 0 88 37q37 36 37 88t-37 88q-36 36 -88 36q-51 0 -88 -36zM1635 249v86q0 311 -311 311t-311 -311v-243q0 -187 -125 -187
h-364v0h-94q-125 0 -125 187v312h-249v-312q0 -436 374 -436h365v0h93q374 0 374 436v159v0v84q0 62 62 62t62 -62v-335h326v249h-77z" />
    <glyph glyph-name="uniFE8B" unicode="&#x626;" horiz-adv-x="640" arabic-form="initial" 
d="M325 436q0 -187 -125 -187h-200v-249h200q374 0 374 436v312h-249v-312zM355 1024q-2 29 9 58q20 55 74 80q53 25 108 5l14 -6l68 177l-8 3l-8 4q-130 47 -255 -11t-172 -187q-22 -62 -21 -123h-73v-190h537v190h-273z" />
    <glyph glyph-name="uniFEBF" unicode="&#x636;" horiz-adv-x="1248" arabic-form="initial" 
d="M803 784q36 36 36 88t-36 88q-36 37 -88 37t-88 -37q-37 -36 -37 -88t37 -88q36 -36 88 -36t88 36zM893 383q62 0 62 -62v-72h-482v4q0 17 16 38q18 23 48 42q73 50 170 50h186zM1205 321q-1 311 -312 311h-186q-73 0 -157 -29q-83 -30 -155 -80v89h-249v-363h-146v-249
h1205v321z" />
    <glyph glyph-name="uniFBFE" unicode="&#x6cc;" horiz-adv-x="638" arabic-form="initial" 
d="M502 -88q-52 0 -88 -37q-37 -36 -37 -88t37 -88q36 -36 88 -36t88 36t36 88t-36 88q-36 37 -88 37zM128 -123q-36 -36 -36 -88t36 -88q37 -36 88 -36q52 0 89 36q36 36 36 88t-36 88q-37 37 -89 37q-51 0 -88 -37zM199 0q374 0 374 436v312h-249v-312q0 -186 -125 -186
h-200v-250h200z" />
    <glyph glyph-name="uniFBFF" unicode="&#x6cc;" horiz-adv-x="784" arabic-form="medial" 
d="M410 -125q-37 -36 -37 -88t37 -88q36 -36 87 -36q52 0 89 36q36 36 36 88t-36 88q-37 37 -89 37q-51 0 -87 -37zM124 -123q-37 -36 -37 -88t37 -88q36 -36 88 -36t88 36t36 88t-36 88q-36 37 -88 37t-88 -37zM693 250q-124 0 -125 184v0v2v312h-249v-312
q0 -186 -124 -186h-200v-250h200q157 0 249 79q91 -79 249 -79h94v250h-94z" />
    <glyph glyph-name="uniFEBB" unicode="&#x635;" horiz-adv-x="1241" arabic-form="initial" 
d="M893 383q62 0 62 -62v-72h-482v4q0 17 16 38q18 23 48 42q73 50 170 50h186zM1205 321q-1 311 -312 311h-186q-73 0 -157 -29q-83 -30 -155 -80v89h-249v-363h-146v-249h1205v321z" />
    <glyph glyph-name="uni0621" unicode="&#x621;" horiz-adv-x="655" arabic-form="isolated" 
d="M323 190q-2 29 8 58q21 55 75 80q53 25 109 5q6 -3 13 -6l69 177l-9 3l-8 4q-129 47 -254 -11t-173 -187q-23 -62 -21 -123h-73v-190h538v190h-274z" />
    <glyph glyph-name="uni0627" unicode="&#x627;" horiz-adv-x="352" arabic-form="isolated" 
d="M48 0h249v1006h-249v-1006z" />
    <glyph glyph-name="uni0628" unicode="&#x628;" horiz-adv-x="1134" arabic-form="isolated" 
d="M533 -106q-37 -37 -37 -89t37 -88q36 -36 88 -36t88 36q37 36 37 88t-37 89q-36 36 -88 36t-88 -36zM839 748v-312q0 -187 -124 -187h-241q-187 0 -187 125q0 124 187 124h41v250h-41q-436 0 -436 -374t436 -374h241q373 0 373 436v312h-249z" />
    <glyph glyph-name="uni0629" unicode="&#x629;" horiz-adv-x="831" arabic-form="isolated" 
d="M548 385q0 56 -41 95q-39 41 -95 41t-96 -41q-40 -39 -40 -95t40 -96t96 -40t95 40q41 40 41 96zM140 113q-113 112 -113 272q0 159 113 272q112 113 272 113q159 0 272 -113t113 -272q0 -160 -113 -272q-113 -113 -272 -113q-160 0 -272 113zM468 868q-36 36 -36 88
t36 88q37 37 88 37q52 0 89 -37q36 -36 36 -88t-36 -88q-37 -36 -89 -36q-51 0 -88 36zM179 868q-36 36 -36 88t36 88q36 37 88 37t88 -37q37 -36 37 -88t-37 -88q-36 -36 -88 -36t-88 36z" />
    <glyph glyph-name="uni062A" unicode="&#x62a;" horiz-adv-x="1137" arabic-form="isolated" 
d="M766 853q37 -36 88 -36q52 0 89 36q36 37 36 88q0 52 -36 88q-37 37 -89 37q-51 0 -88 -37q-36 -36 -36 -88q0 -51 36 -88zM657 855q36 36 36 88t-36 88q-37 36 -88 36q-52 0 -88 -36q-37 -36 -37 -88t37 -88q36 -37 88 -37q51 0 88 37zM836 748v-312q0 -187 -125 -187
h-240q-187 0 -187 125q0 124 187 124h41v250h-41q-436 0 -436 -374t436 -374h240q374 0 374 436v312h-249z" />
    <glyph glyph-name="uni062B" unicode="&#x62b;" horiz-adv-x="1137" arabic-form="isolated" 
d="M800 1133q36 36 36 88t-36 89q-36 36 -88 36t-89 -36q-36 -37 -36 -89t36 -88q37 -36 89 -36t88 36zM766 853q37 -36 88 -36q52 0 89 36q36 37 36 88q0 52 -36 88q-37 37 -89 37q-51 0 -88 -37q-36 -36 -36 -88q0 -51 36 -88zM657 855q36 36 36 88t-36 88q-37 36 -88 36
q-52 0 -88 -36q-37 -36 -37 -88t37 -88q36 -37 88 -37q51 0 88 37zM836 748v-312q0 -187 -125 -187h-240q-187 0 -187 125q0 124 187 124h41v250h-41q-436 0 -436 -374t436 -374h240q374 0 374 436v312h-249z" />
    <glyph glyph-name="uni062C" unicode="&#x62c;" horiz-adv-x="909" arabic-form="isolated" 
d="M868 0v250h-60q8 41 8 84q0 180 -128 308t-308 128q-181 0 -308 -128q-14 -13 -28 -30l206 -145q54 54 130 54q77 0 132 -55t55 -132q0 -46 -20 -84h-75q-120 0 -215 -57q-50 -28 -94 -71q-49 -50 -80 -108l-6 -14q-41 -84 -41 -187q0 -180 127 -308q128 -128 309 -128
t308 128q24 23 43 48l-204 144q-6 -7 -15 -15q-55 -56 -132 -56t-132 56q-55 54 -55 131q0 78 55 132q55 55 132 55h396zM370 -187q0 -51 37 -88q36 -36 87 -36q52 0 89 36q36 37 36 88q0 52 -36 88q-37 37 -89 37q-51 0 -87 -37q-37 -36 -37 -88z" />
    <glyph glyph-name="uni062D" unicode="&#x62d;" horiz-adv-x="922" arabic-form="isolated" 
d="M876 0v250h-60q8 41 8 84q0 180 -128 308t-308 128q-181 0 -308 -128q-14 -13 -28 -30l206 -145q54 54 130 54q77 0 132 -55t55 -132q0 -46 -20 -84h-75q-120 0 -215 -57q-50 -28 -94 -71q-49 -50 -80 -108l-6 -14q-41 -84 -41 -187q0 -180 127 -308q128 -128 309 -128
t308 128q24 23 43 48l-204 144q-6 -7 -15 -15q-55 -56 -132 -56t-132 56q-55 54 -55 131q0 78 55 132q55 55 132 55h396z" />
    <glyph glyph-name="uni062E" unicode="&#x62e;" horiz-adv-x="929" arabic-form="isolated" 
d="M877 0v250h-60q8 41 8 84q0 180 -128 308t-308 128q-181 0 -308 -128q-14 -13 -28 -30l206 -145q54 54 130 54q77 0 132 -55t55 -132q0 -46 -20 -84h-75q-120 0 -215 -57q-50 -28 -94 -71q-49 -50 -80 -108l-6 -14q-41 -84 -41 -187q0 -180 127 -308q128 -128 309 -128
t308 128q24 23 43 48l-204 144q-6 -7 -15 -15q-55 -56 -132 -56t-132 56q-55 54 -55 131q0 78 55 132q55 55 132 55h396zM518 846q36 36 36 88q0 51 -36 88t-88 37t-88 -37q-37 -37 -37 -88q0 -52 37 -88q36 -37 88 -37t88 37z" />
    <glyph glyph-name="uni062F" unicode="&#x62f;" horiz-adv-x="685" arabic-form="isolated" 
d="M192 0h-147v249h147q187 0 187 125q0 124 -187 124h-41v250h41q436 0 436 -374t-436 -374z" />
    <glyph glyph-name="uni0630" unicode="&#x630;" horiz-adv-x="688" arabic-form="isolated" 
d="M166 849q-37 37 -37 89q0 51 37 87q36 37 88 37q51 0 88 -37q36 -36 36 -87q0 -52 -36 -89q-37 -36 -88 -36q-52 0 -88 36zM197 0h-147v249h147q187 0 187 125q0 124 -187 124h-41v250h41q436 0 436 -374t-436 -374z" />
    <glyph glyph-name="uni0631" unicode="&#x631;" horiz-adv-x="678" arabic-form="isolated" 
d="M416 747v-706q0 -56 -40 -96q-39 -40 -95 -40t-96 40l-3 4l-182 -171l4 -4l5 -5q112 -113 272 -113q159 0 272 113q112 113 112 272v706h-249z" />
    <glyph glyph-name="uni0632" unicode="&#x632;" horiz-adv-x="679" arabic-form="isolated" 
d="M629 849q36 36 36 88t-36 88q-36 37 -88 37t-88 -37q-37 -36 -37 -88t37 -88q36 -36 88 -36t88 36zM416 41q0 -56 -39 -96q-40 -40 -96 -40t-96 40l-3 4l-182 -171l4 -4l5 -5q112 -113 272 -113q159 0 272 113q112 113 112 272v706h-249v-706z" />
    <glyph glyph-name="uni0633" unicode="&#x633;" horiz-adv-x="1671" arabic-form="isolated" 
d="M1366 747v-311q0 -187 -125 -187h-21q23 81 23 187v311h-249v-311q0 -187 -125 -187h-64v498h-249v-655q0 -21 -2 -41q-2 -21 -5 -38l-3 -13q-26 -95 -115 -95q-124 0 -124 187v436h-249v-436q0 -436 373 -436q332 0 369 344h348v0h93q374 0 374 436v311h-249z" />
    <glyph glyph-name="uni0634" unicode="&#x634;" horiz-adv-x="1662" arabic-form="isolated" 
d="M1363 747v-311q0 -187 -125 -187h-21q23 81 23 187v311h-249v-311q0 -187 -125 -187h-64v498h-249v-655q0 -21 -2 -41q-2 -21 -5 -38l-3 -13q-26 -95 -115 -95q-124 0 -124 187v436h-249v-436q0 -436 373 -436q332 0 369 344h348v0h93q374 0 374 436v311h-249zM1184 1150
q36 37 36 89t-36 88q-37 36 -89 36t-88 -36t-36 -88t36 -89q36 -36 88 -36t89 36zM1150 871q37 -37 88 -37q52 0 88 37q37 36 37 87q0 52 -37 89q-36 36 -88 36q-51 0 -88 -36q-37 -37 -37 -89q0 -51 37 -87zM1041 872q36 37 36 88q0 52 -36 88q-37 37 -88 37q-52 0 -89 -37
q-36 -36 -36 -88q0 -51 36 -88q37 -36 89 -36q51 0 88 36z" />
    <glyph glyph-name="uni0635" unicode="&#x635;" horiz-adv-x="1655" arabic-form="isolated" 
d="M1291 383q62 0 62 -62v-72h-483v4q0 17 17 38q17 23 47 42q73 50 170 50h187zM1602 321q0 311 -311 311h-187q-73 0 -156 -29q-84 -30 -155 -80v89h-249v-84h-1v-436q0 -45 -7 -79l-1 -7l-2 -6q-26 -95 -114 -95q-125 0 -125 187v436h-249v-436q0 -436 374 -436
q332 0 369 344h814v321z" />
    <glyph glyph-name="uni0636" unicode="&#x636;" horiz-adv-x="1657" arabic-form="isolated" 
d="M1192 784q36 36 36 88q0 51 -36 88q-37 37 -88 37q-52 0 -89 -37q-36 -37 -36 -88q0 -52 36 -88q37 -37 89 -37q51 0 88 37zM1296 383q62 0 62 -62v-72h-483v4q0 17 17 38q17 23 47 42q73 50 170 50h187zM1607 321q0 311 -311 311h-187q-73 0 -156 -29q-84 -30 -155 -80
v89h-249v-84h-1v-436q0 -45 -7 -79l-1 -7l-2 -6q-26 -95 -114 -95q-125 0 -125 187v436h-249v-436q0 -436 374 -436q332 0 369 344h814v321z" />
    <glyph glyph-name="uni0637" unicode="&#x637;" horiz-adv-x="1257" arabic-form="isolated" 
d="M885 383q62 0 62 -62v-72h-483v4q1 17 18 38q17 23 46 42q74 50 170 50h187zM1196 321q0 311 -311 311h-187q-72 0 -156 -29q-83 -30 -155 -80v483h-249v-757h-92v-249h1150v321z" />
    <glyph glyph-name="uni0638" unicode="&#x638;" horiz-adv-x="1264" arabic-form="isolated" 
d="M804 784q36 36 36 88t-36 88q-37 37 -88 37q-52 0 -88 -37q-37 -36 -37 -88t37 -88q36 -36 88 -36q51 0 88 36zM894 383q62 0 62 -62v-72h-483v4q1 17 18 38q17 23 46 42q74 50 170 50h187zM1205 321q0 311 -311 311h-187q-72 0 -156 -29q-83 -30 -155 -80v483h-249v-757
h-92v-249h1150v321z" />
    <glyph glyph-name="uni0639" unicode="&#x639;" horiz-adv-x="1080" arabic-form="isolated" 
d="M659 250q-55 0 -94 39q-40 40 -40 96t40 95q40 41 96 41t96 -41q39 -39 39 -95v-5h249l1 5q0 159 -113 272t-272 113q-160 0 -272 -113q-113 -113 -113 -272q0 -81 29 -150q-250 -65 -250 -422q0 -436 374 -436h617v249h-617q-125 0 -125 187q0 184 121 187h234h2h331v0
h54v250h-387z" />
    <glyph glyph-name="uni063A" unicode="&#x63a;" horiz-adv-x="1073" arabic-form="isolated" 
d="M734 858q36 36 36 88t-36 88t-88 36t-88 -36q-37 -36 -37 -88t37 -88q36 -37 88 -37t88 37zM644 250q-55 0 -94 39q-40 40 -40 96t40 95q40 41 96 41t96 -41q39 -39 39 -95v-5h249l1 5q0 159 -113 272t-272 113q-160 0 -272 -113q-113 -113 -113 -272q0 -81 29 -150
q-250 -65 -250 -422q0 -436 374 -436h617v249h-617q-125 0 -125 187q0 184 121 187h234h2h331v0h54v250h-387z" />
    <glyph glyph-name="uni0641" unicode="&#x641;" horiz-adv-x="1617" arabic-form="isolated" 
d="M1166 249q-55 1 -94 40q-40 40 -40 96t40 95q40 41 96 41t95 -41q40 -39 40 -95v-5v0v-131h-137zM1553 389q-2 157 -113 268q-113 113 -272 113t-272 -113t-113 -272q0 -72 24 -136h-212v0h-106q-187 0 -187 125q0 124 187 124h41v250h-41q-436 0 -436 -374t436 -374h147
v0h530h2h330v0h55v389v0zM1256 858q36 36 36 88t-36 88t-88 36t-88 -36q-37 -36 -37 -88t37 -88q36 -37 88 -37t88 37z" />
    <glyph glyph-name="uni0642" unicode="&#x642;" horiz-adv-x="1240" arabic-form="isolated" 
d="M1009 858q36 36 36 88t-36 88t-88 36t-88 -36q-37 -36 -37 -88t37 -88q36 -37 88 -37t88 37zM720 858q36 36 36 88t-36 88t-88 36t-89 -36q-36 -36 -36 -88t36 -88q37 -37 89 -37t88 37zM662 385q0 56 40 95q39 40 95 40t96 -40q40 -39 40 -95v-5v0v-131h-136
q-56 0 -95 40q-40 40 -40 96zM1182 389v0q-1 157 -113 268q-112 113 -272 113q-159 0 -272 -113q-112 -113 -112 -272q0 -160 112 -272q113 -113 272 -113h136q0 -187 -187 -187h-249q-187 0 -187 187v4q0 51 33 88l-180 173q-102 -110 -102 -261v-4v0q0 -436 436 -436h249
q436 0 436 436v389z" />
    <glyph glyph-name="uni0643" unicode="&#x643;" horiz-adv-x="1244" arabic-form="isolated" 
d="M953 1006v-570q0 -187 -124 -187h-94v0h-323q-125 0 -125 187h-249q0 -436 374 -436h93v0h324q374 0 374 436v570h-250zM824 510h-207q-1 23 6 44q16 42 57 61q40 18 82 3l10 -4l52 134l-6 2l-7 3q-97 36 -192 -8q-95 -43 -131 -141q-17 -47 -16 -94h-55v-144h407v144z
" />
    <glyph glyph-name="uni0644" unicode="&#x644;" horiz-adv-x="854" arabic-form="isolated" 
d="M553 1008v-913q0 -45 -7 -80l-1 -6l-2 -7q-26 -94 -114 -94q-125 0 -125 187v156h-249v-156q0 -436 374 -436q332 0 369 343q5 44 5 93v913h-250z" />
    <glyph glyph-name="uni0645" unicode="&#x645;" horiz-adv-x="1227" arabic-form="isolated" 
d="M800 249q-56 0 -96 40t-40 95q0 56 40 96t96 40t96 -40t40 -96q0 -55 -40 -95t-96 -40zM800 769q-159 0 -272 -112q-70 -71 -97 -159h-14q-373 0 -373 -436v-406h249v406q0 187 124 187h22q29 -76 89 -137q113 -112 272 -112t272 112q113 113 113 272q0 160 -113 273
q-113 112 -272 112z" />
    <glyph glyph-name="uni0646" unicode="&#x646;" horiz-adv-x="1098" arabic-form="isolated" 
d="M680 868q36 37 36 89q0 51 -36 87q-36 37 -88 37t-88 -37q-37 -36 -37 -87q0 -52 37 -89q36 -36 88 -36t88 36zM792 748v-517q0 -187 -125 -187h-131v0h-93q-125 0 -125 187v81q0 125 187 125h41v249h-41q-436 0 -436 -374v-81q0 -436 374 -436h130v0h94q374 0 374 436
v517h-249z" />
    <glyph glyph-name="uni0647" unicode="&#x647;" horiz-adv-x="858" arabic-form="isolated" 
d="M571 385q0 56 -41 95q-39 41 -95 41t-96 -41q-40 -39 -40 -95t40 -96t96 -40t95 40q41 40 41 96zM163 113q-113 112 -113 272q0 159 113 272q112 113 272 113q159 0 272 -113t113 -272q0 -160 -113 -272q-113 -113 -272 -113q-160 0 -272 113z" />
    <glyph glyph-name="uni0648" unicode="&#x648;" horiz-adv-x="870" arabic-form="isolated" 
d="M299 384q0 56 40 96t96 40t95 -40q41 -40 41 -96l-1 -4h1v-131h-136q-56 0 -96 40t-40 95zM820 384q0 160 -113 273q-113 112 -272 112t-272 -112q-113 -113 -113 -273q0 -159 113 -272q113 -112 272 -112h129q-9 -31 -34 -55q-39 -40 -95 -40t-96 40l-3 4l-182 -171
l4 -5l5 -4q113 -113 272 -113t272 113q113 112 113 272v343z" />
    <glyph glyph-name="uni0649" unicode="&#x649;" horiz-adv-x="1304" arabic-form="isolated" 
d="M1262 372h-483q-63 0 -63 62q0 63 63 63h483v249h-483q-312 0 -312 -312q0 -311 312 -311h234v-30q0 -187 -125 -187h-365v0h-93q-125 0 -125 187v311h-249v-311q0 -436 374 -436h364v0h94q374 0 374 436v279z" />
    <glyph glyph-name="uni064A" unicode="&#x64a;" horiz-adv-x="1320" arabic-form="isolated" 
d="M778 -429q-37 -37 -37 -89q0 -51 37 -87q36 -37 88 -37q51 0 88 37q36 36 36 87q0 52 -36 89q-37 36 -88 36q-52 0 -88 -36zM492 -428q-37 -36 -37 -88q0 -51 37 -88q37 -36 88 -36q52 0 88 36q37 37 37 88q0 52 -37 88q-36 37 -88 37q-51 0 -88 -37zM1256 372h-483
q-63 0 -63 62q0 63 63 63h483v249h-483q-312 0 -312 -312q0 -311 312 -311h234v-30q0 -187 -125 -187h-365v0h-93q-125 0 -125 187v311h-249v-311q0 -436 374 -436h364v0h94q374 0 374 436v279z" />
    <glyph glyph-name="uni064B" unicode="&#xfe70;" horiz-adv-x="598" arabic-form="isolated" 
d="M0 1475l15 -101l591 86l-15 101zM591 1713l-591 -86l15 -101l591 86z" />
    <glyph glyph-name="uni064C" unicode="&#xfe72;" horiz-adv-x="545" arabic-form="isolated" 
d="M386 1077l-2 -1v0v0l-57 -15v0l-16 59q-6 25 6 46q13 22 37 28q24 7 46 -6q22 -12 29 -37q7 -24 -6 -46t-37 -28zM457 1285q-62 36 -131 18q-70 -19 -106 -81q-35 -62 -17 -131l16 -59l-49 -12q1 6 1 17q0 70 -50 121l-6 5q-48 45 -115 45v-111q25 0 42 -18
q18 -17 18 -42q0 -13 -4 -23q-5 -11 -14 -20q-10 -11 -23 -15l-5 -1l28 -107l1 -1l372 99v0q69 18 105 80q35 62 17 131q-18 70 -80 105z" />
    <glyph glyph-name="uni064D" unicode="&#xfe74;" horiz-adv-x="602" arabic-form="isolated" 
d="M0 -581l15 -101l591 86l-15 101zM591 -343l-591 -86l15 -100l591 86z" />
    <glyph glyph-name="uni064E" unicode="&#xfe76;" horiz-adv-x="601" arabic-form="isolated" 
d="M591 1542l-591 -86l15 -101l591 86z" />
    <glyph glyph-name="uni064F" unicode="&#xfe78;" horiz-adv-x="537" arabic-form="isolated" 
d="M372 1428l-2 -1v0l-57 -15l-16 59q-6 25 6 46q13 22 37 28q25 7 46 -5q22 -13 29 -38q6 -24 -6 -46q-13 -21 -37 -28zM442 1636q-62 36 -130 18q-70 -19 -105 -81q-37 -62 -18 -131l16 -59l-205 -54l29 -108l371 99q70 18 105 80q37 62 18 131q-19 70 -81 105z" />
    <glyph glyph-name="uni0650" unicode="&#xfe7a;" horiz-adv-x="595" arabic-form="isolated" 
d="M591 -369l-591 -86l15 -101l591 86z" />
    <glyph glyph-name="uni0651" unicode="&#xfe7c;" horiz-adv-x="530" arabic-form="isolated" 
d="M411 1731v-153q0 -92 -61 -101l-11 -1q12 41 12 93v154l-123 -17v-154q0 -85 -53 -98q-52 -1 -52 84v153l-123 -17v-153q0 -54 12 -93q6 -22 16 -39q10 -16 24 -29q20 -18 48 -26q9 -2 20 -4q14 -2 36 -1h10l19 2l45 7l74 10l46 6q184 26 184 241v154z" />
    <glyph glyph-name="uni0652" unicode="&#xfe7e;" horiz-adv-x="446" arabic-form="isolated" 
d="M188 1211q18 10 40 10q33 0 57 -23q24 -24 24 -57q0 -16 -6 -30q-6 -15 -18 -27q-24 -23 -57 -23t-57 23q-23 23 -23 57q0 33 23 57q9 8 17 13zM382 1310q-65 59 -154 59h-4q-92 -2 -157 -67q-67 -67 -67 -161q0 -43 14 -81q17 -44 53 -81q67 -66 161 -66q95 0 162 66
q36 37 52 81q15 38 15 81q0 94 -67 161z" />
    <glyph glyph-name=".notdef" horiz-adv-x="500" 
d="M438 0v750h-375v-750h375zM125 688h250v-625h-250v625z" />
    <glyph glyph-name="glyph1" horiz-adv-x="0" 
 />
    <glyph glyph-name="glyph2" horiz-adv-x="333" 
 />
    <glyph glyph-name="space" unicode=" " horiz-adv-x="240" 
 />
    <glyph glyph-name="glyph4" horiz-adv-x="280" 
 />
    <glyph glyph-name="glyph13" horiz-adv-x="273" 
 />
    <glyph glyph-name="glyph36" horiz-adv-x="672" 
d="M0 0h676v249h-676v-249z" />
    <glyph glyph-name="uni066B" unicode="&#x66b;" horiz-adv-x="219" 
d="M186 91q-1 31 -23 53q-23 24 -57 24q-33 1 -57 -22q-24 -24 -24 -57q-1 -34 23 -58q23 -24 57 -24h4l4 1l-1 -90l72 -1l2 174v0z" />
    <glyph glyph-name="uni066C" unicode="&#x66c;" horiz-adv-x="184" 
d="M162 184q-1 27 -20 47q-21 21 -51 21q-29 1 -51 -20q-21 -21 -21 -50q-1 -30 20 -51t51 -22l4 1h3l-1 -79l64 -1l2 154v0z" />
    <glyph glyph-name="glyph99" horiz-adv-x="623" 
 />
    <glyph glyph-name="guillemotleft" unicode="&#xab;" horiz-adv-x="492" 
d="M267 655h193v346h-193v-346zM31 655h193v346h-193v-346z" />
    <glyph glyph-name="guillemotright" unicode="&#xbb;" horiz-adv-x="492" 
d="M267 655h193v346h-193v-346zM31 655h193v346h-193v-346z" />
    <glyph glyph-name="divide" unicode="&#xf7;" horiz-adv-x="849" 
d="M44 125h761v280h-761v-280zM328 -145q-40 41 -40 99t40 99t96 41q57 0 97 -41t40 -99t-40 -99t-97 -41q-56 0 -96 41zM328 476q-40 41 -40 99t40 99t96 41q57 0 97 -41t40 -99t-40 -99t-97 -41q-56 0 -96 41z" />
    <glyph glyph-name="exclam" unicode="!" horiz-adv-x="355" 
d="M90 37q-36 36 -36 88q0 51 36 88q36 36 88 36t88 -36q37 -37 37 -88q0 -52 -37 -88q-36 -37 -88 -37t-88 37zM54 1000h249v-688h-249v688z" />
    <glyph glyph-name="quotedbl" unicode="&#x22;" horiz-adv-x="492" 
d="M267 655h193v346h-193v-346zM31 655h193v346h-193v-346z" />
    <glyph glyph-name="dollar" unicode="$" horiz-adv-x="872" 
d="M345 1121h249v-124h249v-249h-498q-63 0 -63 -29q0 -34 63 -34h186q312 0 312 -278q0 -253 -249 -280v-127h-249v125h-312v249h498q63 0 63 33q0 29 -63 29h-186q-312 0 -312 283q0 278 312 278v124z" />
    <glyph glyph-name="uni066A" unicode="&#x66a;" horiz-adv-x="874" 
d="M628 99q-36 36 -36 88t36 88q36 37 88 37t88 -37q37 -36 37 -88t-37 -88q-36 -36 -88 -36t-88 36zM68 597q-37 36 -37 88t37 88q36 37 88 37q51 0 88 -37q36 -36 36 -88t-36 -88q-37 -36 -88 -36q-52 0 -88 36zM841 872l-529 -872h-281l531 872h279z" />
    <glyph glyph-name="quotesingle" unicode="'" horiz-adv-x="333" 
d="M39 504h249v436h-249v-436z" />
    <glyph glyph-name="parenright" unicode=")" horiz-adv-x="511" 
d="M472 436q0 -436 -436 -436v249q187 0 187 187v249q0 187 -187 187v249q436 0 436 -436v-249z" />
    <glyph glyph-name="parenleft" unicode="(" horiz-adv-x="506" 
d="M31 685q0 436 436 436v-249q-187 0 -187 -187v-249q0 -187 187 -187v-249q-436 0 -436 436v249z" />
    <glyph glyph-name="multiply" unicode="&#xd7;" horiz-adv-x="890" 
d="M655 809l-600 -600l190 -190l600 601zM245 809l-190 -189l601 -601l189 190z" />
    <glyph glyph-name="plus" unicode="+" horiz-adv-x="894" 
d="M54 367h789v249h-789v-249zM324 97h249v789h-249v-789z" />
    <glyph glyph-name="uni060C" unicode="&#x60c;" horiz-adv-x="415" 
d="M268 285q-7 4 -15 7l72 149l-121 57l-138 -290v0q-22 -54 -3 -108q21 -58 76 -85q57 -27 115 -6t85 77t6 114q-20 58 -77 85z" />
    <glyph glyph-name="hyphen" unicode="-" horiz-adv-x="717" 
d="M45 316h623v249h-623v-249z" />
    <glyph glyph-name="period" unicode="." horiz-adv-x="352" 
d="M93 37q-37 36 -37 88q0 51 37 88q36 36 88 36q51 0 88 -36q36 -37 36 -88q0 -52 -36 -88q-37 -37 -88 -37q-52 0 -88 37z" />
    <glyph glyph-name="slash" unicode="/" horiz-adv-x="835" 
d="M578 1121l-566 -1121h260l559 1121h-253z" />
    <glyph glyph-name="uni0660" unicode="&#x660;" horiz-adv-x="406" 
d="M94 244q-44 43 -44 105t44 105q43 44 105 44q61 0 105 -44q43 -43 43 -105t-43 -105q-44 -44 -105 -44q-62 0 -105 44z" />
    <glyph glyph-name="uni0661" unicode="&#x661;" horiz-adv-x="348" 
d="M45 0h249v872h-249v-872z" />
    <glyph glyph-name="uni0662" unicode="&#x662;" horiz-adv-x="758" 
d="M419 623h287v249h-283h-9q-106 -6 -190 -64q-30 -20 -57 -48q-113 -112 -113 -271q0 -39 7 -76v-2l1 -3l5 -19l92 -389h264l-26 108l-79 319l-15 60v2q0 56 40 96q33 32 76 38z" />
    <glyph glyph-name="uni0663" unicode="&#x663;" horiz-adv-x="1176" 
d="M871 872v-103q0 -186 -124 -186h-22q23 80 23 186v103h-249v-103q0 -186 -125 -186h-64v182v4v103h-249v-872h249v333h437q373 0 373 436v103h-249z" />
    <glyph glyph-name="uni0664" unicode="&#x664;" horiz-adv-x="901" 
d="M47 623q0 249 374 249h436v-249h-499q-62 0 -62 -31t62 -31h250v-250h-250q-62 0 -62 -31t62 -31h499v-249h-436q-374 0 -374 249q0 187 125 187q-125 0 -125 187z" />
    <glyph glyph-name="uni0665" unicode="&#x665;" horiz-adv-x="954" 
d="M661 436q0 77 -55 132t-132 55t-132 -55t-55 -132t55 -132t132 -55t132 55t55 132zM166 128q-128 127 -128 308t128 308q127 128 308 128t308 -128q128 -127 128 -308t-128 -308q-127 -128 -308 -128t-308 128z" />
    <glyph glyph-name="uni0666" unicode="&#x666;" horiz-adv-x="826" 
d="M50 877v-249h354q124 0 124 -187v-441h249v441q0 436 -373 436h-354z" />
    <glyph glyph-name="uni0667" unicode="&#x667;" horiz-adv-x="805" 
d="M507 876v-440q0 -170 -103 -186q-103 16 -103 186v440h-249v-440q0 -348 237 -418q51 -15 114 -18h2q63 3 114 18q237 70 237 418v440h-249z" />
    <glyph glyph-name="uni0668" unicode="&#x668;" 
d="M397 876h-3q-63 -2 -114 -18q-237 -70 -237 -417v-441h249v441q0 170 103 185q103 -15 103 -185v-441h249v441q0 347 -237 417q-51 16 -113 18z" />
    <glyph glyph-name="uni0669" unicode="&#x669;" horiz-adv-x="899" 
d="M335 623q-46 0 -46 -31t46 -31h220q46 0 46 31t-46 31h-220zM476 872q374 0 374 -286v-586h-249v311h-187q-374 0 -374 275q0 286 374 286h62z" />
    <glyph glyph-name="colon" unicode=":" horiz-adv-x="305" 
d="M64 118q-37 36 -37 88q0 51 37 88q36 36 88 36q51 0 88 -36q36 -37 36 -88q0 -52 -36 -88q-37 -37 -88 -37q-52 0 -88 37zM64 491q-37 37 -37 88q0 52 37 88q36 37 88 37q51 0 88 -37q36 -36 36 -88q0 -51 -36 -88q-37 -36 -88 -36q-52 0 -88 36z" />
    <glyph glyph-name="uni061B" unicode="&#x61b;" horiz-adv-x="392" 
d="M102 36q-36 37 -36 89q0 51 36 88q36 36 88 36t88 -36q37 -37 37 -88q0 -52 -37 -89q-36 -36 -88 -36t-88 36zM172 430l-120 58l138 290l121 -57zM49 380q-21 58 6 115q27 56 85 76q58 21 114 -6q56 -26 77 -85q21 -58 -6 -114t-85 -77t-114 6t-77 85z" />
    <glyph glyph-name="greater" unicode="&#x3e;" horiz-adv-x="775" 
d="M45 838v-249l436 -187l-436 -187v-249l685 311v249z" />
    <glyph glyph-name="equal" unicode="=" horiz-adv-x="1010" 
d="M54 409h893v249h-893v-249zM54 35h893v249h-893v-249z" />
    <glyph glyph-name="less" unicode="&#x3c;" horiz-adv-x="796" 
d="M728 838l-685 -312v-249l685 -311v249l-436 187l436 187v249z" />
    <glyph glyph-name="uni061F" unicode="&#x61f;" horiz-adv-x="658" 
d="M366 213q-36 -37 -36 -88q0 -52 36 -88q36 -37 88 -37t88 37q37 36 37 88q0 51 -37 88q-36 36 -88 36t-88 -36zM629 751v249h-237q-374 0 -374 -286q0 -250 312 -272v-130h249v376h-187q-62 0 -62 26q0 37 62 37h237z" />
    <glyph glyph-name="uni066D" unicode="&#x66d;" horiz-adv-x="500" 
d="M517 320l-167 -24l-46 172h-24l-47 -172l-166 25l-11 -25l141 -113l-63 -167l21 -16l137 113l137 -113l20 18l-61 167l140 111z" />
    <glyph glyph-name="bracketright" unicode="]" horiz-adv-x="534" 
d="M49 1121v-249h187v-623h-187v-249h436v1121h-436z" />
    <glyph glyph-name="backslash" unicode="\" horiz-adv-x="811" 
d="M-12 1121l559 -1121h260l-566 1121h-253z" />
    <glyph glyph-name="bracketleft" unicode="[" horiz-adv-x="516" 
d="M44 1121v-1121h436v249h-187v623h187v249h-436z" />
    <glyph glyph-name="underscore" unicode="_" horiz-adv-x="994" 
d="M53 0h893v249h-893v-249z" />
    <glyph glyph-name="uni0640" unicode="&#x640;" horiz-adv-x="669" 
d="M-3 0h676v249h-676v-249z" />
    <glyph glyph-name="braceright" unicode="}" horiz-adv-x="664" 
d="M485 436q0 -436 -436 -436v249q187 0 187 187v249q0 187 -187 187v249q436 0 436 -436h125v-249h-125z" />
    <glyph glyph-name="bar" unicode="|" horiz-adv-x="323" 
d="M268 -189v1255h-212v-1255h212z" />
    <glyph glyph-name="braceleft" unicode="{" horiz-adv-x="659" 
d="M169 685q0 436 436 436v-249q-187 0 -187 -187v-249q0 -187 187 -187v-249q-436 0 -436 436h-125v249h125z" />
    <glyph glyph-name="zero" unicode="0" horiz-adv-x="878" 
d="M626 436q0 77 -55 132t-132 55t-132 -55t-55 -132t55 -132t132 -55t132 55t55 132zM131 128q-128 127 -128 308t128 308q127 128 308 128t308 -128q128 -127 128 -308t-128 -308q-127 -128 -308 -128t-308 128z" />
    <glyph glyph-name="one" unicode="1" horiz-adv-x="303" 
d="M27 0h249v872h-249v-872z" />
    <glyph glyph-name="two" unicode="2" horiz-adv-x="851" 
d="M460 872q374 0 374 -286q0 -275 -374 -275h-62q-125 0 -125 -25v-37h561v-249h-810v286q0 275 374 275h124q63 0 63 25q0 37 -63 37h-498v249h436z" />
    <glyph glyph-name="three" unicode="3" horiz-adv-x="841" 
d="M453 0h-436v249h498q63 0 63 31t-63 31h-249v250h249q63 0 63 31t-63 31h-498v249h436q374 0 374 -249q0 -187 -125 -187q125 0 125 -187q0 -249 -374 -249z" />
    <glyph glyph-name="four" unicode="4" horiz-adv-x="853" 
d="M583 872v-311h-312v311h-249v-561h561v-311h249v872h-249z" />
    <glyph glyph-name="five" unicode="5" horiz-adv-x="841" 
d="M17 0v249h498q63 0 63 37q0 25 -63 25h-498v561h810v-249h-561v-62h187q374 0 374 -275q0 -286 -374 -286h-436z" />
    <glyph glyph-name="six" unicode="6" horiz-adv-x="841" 
d="M532 249q46 0 46 31t-46 31h-220q-46 0 -46 -31t46 -31h220zM391 0q-374 0 -374 286v586h249v-311h187q374 0 374 -275q0 -286 -374 -286h-62z" />
    <glyph glyph-name="seven" unicode="7" horiz-adv-x="837" 
d="M15 872v-249h498l-498 -623h311l499 623v249h-810z" />
    <glyph glyph-name="eight" unicode="8" horiz-adv-x="835" 
d="M451 249q125 2 125 33t-125 29h-62q-125 0 -125 -31t125 -31h62zM451 561q125 0 125 31t-125 31h-62q-125 -2 -125 -33t125 -29h62zM389 872h62q374 0 374 -249q0 -187 -125 -187q125 0 125 -187q0 -249 -374 -249h-62q-374 0 -374 249q0 187 125 187q-125 0 -125 187
q0 249 374 249z" />
    <glyph glyph-name="nine" unicode="9" horiz-adv-x="842" 
d="M308 623q-46 0 -46 -31t46 -31h220q46 0 46 31t-46 31h-220zM449 872q374 0 374 -286v-586h-249v311h-187q-374 0 -374 275q0 286 374 286h62z" />
    <glyph glyph-name="quotedblleft" unicode="&#x201c;" horiz-adv-x="620" 
d="M511 828q-6 3 -13 6l61 127l-103 49l-118 -248v0q-18 -45 -2 -91q18 -50 65 -73q48 -23 98 -5q49 18 72 66q23 47 5 97q-17 49 -65 72zM230 828q-7 3 -13 6l61 127l-103 49l-118 -248v0q-19 -45 -3 -91q18 -50 66 -73t98 -5q49 18 72 66q23 47 5 97q-17 49 -65 72z" />
    <glyph glyph-name="quotedblright" unicode="&#x201d;" horiz-adv-x="603" 
d="M32 792q-18 51 5 100t74 67t100 -5t67 -74q17 -48 -3 -94v0l-120 -253l-105 49l62 131q-7 2 -13 5q-49 24 -67 74zM320 792q-18 51 5 100t74 67t100 -5t67 -74q17 -48 -2 -94v0l-121 -253l-105 49l62 131q-7 2 -13 5q-49 24 -67 74z" />
    <glyph glyph-name="uni2010" unicode="&#x2010;" horiz-adv-x="604" 
d="M571 192v143h-537v-143h537z" />
    <glyph glyph-name="uni2421" unicode="&#x2421;" horiz-adv-x="709" 
d="M674 88h-127v229h-36v-260h163v31zM479 88h-159v88h143v31h-143v79h153v31h-189v-260h195v31zM174 313q-13 4 -46 4h-90v-260h95q21 0 41 5q79 19 79 127q0 106 -79 124zM192 106q-19 -18 -63 -18h-56v198h55q29 0 44 -5q46 -18 46 -92q0 -55 -26 -83z" />
    <glyph glyph-name="uni00A0" unicode="&#xa0;" horiz-adv-x="623" 
 />
    <glyph glyph-name="uniFD3F" unicode="&#xfd3f;" horiz-adv-x="537" 
d="M493 436q0 -436 -436 -436v249q187 0 187 187v249q0 187 -187 187v249q436 0 436 -436v-249z" />
    <glyph glyph-name="uniFD3E" unicode="&#xfd3e;" horiz-adv-x="540" 
d="M57 685q0 436 436 436v-249q-187 0 -187 -187v-249q0 -187 187 -187v-249q-436 0 -436 436v249z" />
    <glyph glyph-name="uni06F9" unicode="&#x6f9;" horiz-adv-x="899" 
d="M335 623q-46 0 -46 -31t46 -31h220q46 0 46 31t-46 31h-220zM476 872q374 0 374 -286v-586h-249v311h-187q-374 0 -374 275q0 286 374 286h62z" />
    <glyph glyph-name="uni06F8" unicode="&#x6f8;" 
d="M397 876h-3q-63 -2 -114 -18q-237 -70 -237 -417v-441h249v441q0 170 103 185q103 -15 103 -185v-441h249v441q0 347 -237 417q-51 16 -113 18z" />
    <glyph glyph-name="uni06F7" unicode="&#x6f7;" horiz-adv-x="805" 
d="M507 876v-440q0 -170 -103 -186q-103 16 -103 186v440h-249v-440q0 -348 237 -418q51 -15 114 -18h2q63 3 114 18q237 70 237 418v440h-249z" />
    <glyph glyph-name="uni06F6" unicode="&#x6f6;" horiz-adv-x="826" 
d="M50 877v-249h354q124 0 124 -187v-441h249v441q0 436 -373 436h-354z" />
    <glyph glyph-name="uni06F5" unicode="&#x6f5;" horiz-adv-x="954" 
d="M661 436q0 77 -55 132t-132 55t-132 -55t-55 -132t55 -132t132 -55t132 55t55 132zM166 128q-128 127 -128 308t128 308q127 128 308 128t308 -128q128 -127 128 -308t-128 -308q-127 -128 -308 -128t-308 128z" />
    <glyph glyph-name="uni06F4" unicode="&#x6f4;" horiz-adv-x="901" 
d="M47 623q0 249 374 249h436v-249h-499q-62 0 -62 -31t62 -31h250v-250h-250q-62 0 -62 -31t62 -31h499v-249h-436q-374 0 -374 249q0 187 125 187q-125 0 -125 187z" />
    <glyph glyph-name="uni06F3" unicode="&#x6f3;" horiz-adv-x="1176" 
d="M871 872v-103q0 -186 -124 -186h-22q23 80 23 186v103h-249v-103q0 -186 -125 -186h-64v182v4v103h-249v-872h249v333h437q373 0 373 436v103h-249z" />
    <glyph glyph-name="uni06F2" unicode="&#x6f2;" horiz-adv-x="758" 
d="M419 623h287v249h-283h-9q-106 -6 -190 -64q-30 -20 -57 -48q-113 -112 -113 -271q0 -39 7 -76v-2l1 -3l5 -19l92 -389h264l-26 108l-79 319l-15 60v2q0 56 40 96q33 32 76 38z" />
    <glyph glyph-name="uni06F1" unicode="&#x6f1;" horiz-adv-x="348" 
d="M45 0h249v872h-249v-872z" />
    <glyph glyph-name="uni06F0" unicode="&#x6f0;" horiz-adv-x="406" 
d="M94 244q-44 43 -44 105t44 105q43 44 105 44q61 0 105 -44q43 -43 43 -105t-43 -105q-44 -44 -105 -44q-62 0 -105 44z" />
    <glyph glyph-name="uni0653" unicode="&#x653;" horiz-adv-x="634" 
d="M627 1135q-69 -46 -156 -39q-34 3 -78 15q-17 5 -39 12l-39 12q-105 35 -157 39q-87 8 -156 -39v155q69 47 156 40q52 -5 157 -40l39 -13q22 -6 39 -11q44 -12 78 -15q87 -7 156 39v-155z" />
    <glyph glyph-name="uni0654" unicode="&#x654;" horiz-adv-x="443" 
d="M433 1226h-209q-1 22 6 44q16 42 57 61t83 3q6 -1 11 -4l52 135l-6 3l-7 3q-99 36 -194 -8q-96 -45 -132 -144q-17 -47 -16 -93h-56v-146h411v146z" />
    <glyph glyph-name="uni0655" unicode="&#x655;" horiz-adv-x="457" 
d="M223 -372q-1 22 6 44q16 42 57 61t83 3q5 -1 11 -4l52 136l-6 3l-7 2q-99 36 -194 -8q-96 -44 -132 -143q-17 -47 -16 -94h-56v-146h411v146h-209z" />
    <glyph glyph-name="uniFEFF" unicode="&#xfeff;" horiz-adv-x="0" 
 />
    <glyph glyph-name="glyph223" horiz-adv-x="0" 
 />
    <glyph glyph-name="asterisk" unicode="*" horiz-adv-x="510" 
d="M308 403v-91l70 64l69 -64l-69 -65h98v-91h-98l69 -65l-69 -64l-70 64v-91h-99v91l-69 -64l-70 64l69 65h-98v91h98l-69 65l70 64l69 -64v91h99z" />
    </font>
</defs>
</svg>
